(Italo-Disco) Gazebo - Disco Legend - 1999, FLAC (image+.cue), lossless

 

Создавать темы 28-Фев-2015 20:58

-Gazebo - Disco Legend- Жанр: Italo Disco
Год издания: 1999
Страна-производитель диска: Россия
Издатель (лейбл): DREAMSOUND
Номер по каталогу: ZX-90
Аудиокодек: FLAC (*.flac)
Тип рипа: image+.cue
Битрейт аудио: lossless
Продолжительность: 01:18:46
Источник (релизер): vlad victorovich Собственный рип
Наличие сканов в содержимом раздачи: да-
01. I Like Chopin (Rap Version '98) (3:45)
02. Masterpiece (Rap Version '98) (3:37)
03. Lunatic (4:01)
04. Love In Your Eyes (7:51)
05. London-Paris (4:00)
06. Masterpiece (original) (4:12)
07. I Like Chopin (original) (7:45)
08. Midnight Cocktail (5:11)
09. Gimmik! (3:28)
10. Telephone Mama (5:09)
11. Alice In Wonderland (5:54)
12. Concidence (8:03)
13. Dolce Vita (5:01)
14. The Sun Goes Down On Milky Way (5:06)
15. For Anita (5:43)

Лог создания рипа (ЕАС)

Exact Audio Copy V1.0 beta 3 from 29. August 2011
Отчёт EAC об извлечении, выполненном 6. апреля 2012, 15:09
Gazebo / Disco Legend
Дисковод: ASUS    DRW-1814BLT   Adapter: 2  ID: 0
Режим чтения                 : Достоверность
Использование точного потока : Да
Отключение кэша аудио        : Да
Использование указателей C2  : Нет
Коррекция смещения при чтении                     : 6
Способность читать области Lead-in и Lead-out     : Нет
Заполнение пропущенных сэмплов тишиной            : Да
Удаление блоков с тишиной в начале и конце        : Нет
При вычислениях CRC использовались нулевые сэмплы : Да
Интерфейс                                         : Встроенный Win32-интерфейс для Win NT/2000
Выходной формат : Внутренние WAV-операции
Формат сэмплов  : 44.100 Гц; 16 бит; стерео
TOC извлечённого CD
     Трек |   Старт  | Длительность | Начальный сектор | Конечный сектор
    ---------------------------------------------------------------------
       1  |  0:00.01 |    3:45.03   |           1      |      16878
       2  |  3:45.04 |    3:36.74   |       16879      |      33152
       3  |  7:22.03 |    4:01.04   |       33153      |      51231
       4  | 11:23.07 |    7:51.06   |       51232      |      86562
       5  | 19:14.13 |    4:00.23   |       86563      |     104585
       6  | 23:14.36 |    4:12.11   |      104586      |     123496
       7  | 27:26.47 |    7:44.64   |      123497      |     158360
       8  | 35:11.36 |    5:10.52   |      158361      |     181662
       9  | 40:22.13 |    3:28.29   |      181663      |     197291
      10  | 43:50.42 |    5:09.02   |      197292      |     220468
      11  | 48:59.44 |    5:54.21   |      220469      |     247039
      12  | 54:53.65 |    8:02.42   |      247040      |     283231
      13  | 62:56.32 |    5:00.51   |      283232      |     305782
      14  | 67:57.08 |    5:06.33   |      305783      |     328765
      15  | 73:03.41 |    5:42.56   |      328766      |     354471
Характеристики диапазона извлечения и сообщения об ошибках
Выбранный диапазон
     Имя файла H:\Lossless\2. Поп музыка, Eurodance, Disco\Eurodance, Technopop, Disco\Gazebo - Disco Legend\Gazebo - Disco Legend.wav
     Пиковый уровень 100.0 %
     Скорость извлечения 8.4 X
     Качество диапазона 99.9 %
     CRC теста E5900400
     CRC копии E5900400
     Копирование... OK
Ошибок не произошло
AccurateRip: сводка
Трек  1  отсутствует в базе данных
Трек  2  отсутствует в базе данных
Трек  3  отсутствует в базе данных
Трек  4  отсутствует в базе данных
Трек  5  отсутствует в базе данных
Трек  6  отсутствует в базе данных
Трек  7  отсутствует в базе данных
Трек  8  отсутствует в базе данных
Трек  9  отсутствует в базе данных
Трек 10  отсутствует в базе данных
Трек 11  отсутствует в базе данных
Трек 12  отсутствует в базе данных
Трек 13  отсутствует в базе данных
Трек 14  отсутствует в базе данных
Трек 15  отсутствует в базе данных
Ни одного трека нет в базе AccurateRip
Конец отчёта
==== Контрольная сумма отчёта E79AD84262A14560D5C7B5B3638EE8FB9BED32D234B6E15765F46180568842F1 ====

Скриншот спектра частот (Adobe Audition)

-
Яндекс.Метрика
Рейтинг@Mail.ru