Mehdi - 9 альбомов (1997-2008) [FLAC|Lossless]<New age, Instrumental>

 

Создавать темы 28-Фев-2015 17:49

-Mehdi - 9 альбомов- Год: 1997-2008
Жанр: New age, Instrumental
Продолжительность: 07:30:30
Страна: Iran/USA
Лейбл: Soothing Music
Каталог: SM-1000 - SM-1008
Тип рипа: tracks+.cue
Кодек: FLAC
Битрейт: Lossless-Коллекция инструментальной музыки мульти-инструменталиста и композитора Мехди. Он один из лучших музыкантов нашего времени. Его творчество - это новый шаг из мира альтернативной в мир инструментальной музыки. Современные ритмы, насыщенный разнообразный колорит исполнения, необычайно красивая передача чувств... Во всём мире его музыка получила заслуженное признание гениальности.

Далее&#58;

Мехди родом из Ирана. Переехав в Нью-Йорк в возрасте трёх лет с его семьёй, он окунулся в широкое разнообразие музыкальных течений. "Когда я был ребёнком, первую запись, которую я запомнил на слух, был Моцарт", отмечает Мехди. В возрасте пяти лет это привело его к занятиям на фортепьяно. Уже к семи годам он мастерски играл на нём и использовал в своём репертуаре различные ударные инструменты такие, как: думбек, бонгос и табл. "Позже я добавил колокольчик, кованый дульцимер и сантур", говорит он. "Но мой любимый инструмент - это синтезатор. Технология всегда очаровывала меня и я люблю создавать свои уникальные музыкальные образцы. Самая важная часть работы с синтезаторами - избежать электронного или искуственного звучания музыки. Чем меньше его, тем лучше, поэтому я предпочитаю сочинять простые, но полные энергией мелодии, которые исходят из сердца."
Мехди исполнилось девять, когда его семья уехала в Южную Калифорнию. В то время он был восхищён волшебной музыкой из кинофильма. "Первую запись, которую я когда-то купил, был саундтрек к фильму "Рокки". Я никогда не забуду, как я был увлечён одним треком с очень атмосферным звучанием струнных инструментов", говорит Мехди. "Эта музыка играет в конце боя, как раз перед тем, когда Рокки кричит AdrianAdrian! В детстве я был просто вдохновлён этим кино." К Мехди пришло понятие того, как достичь небывалых высот. Ежедневно он проводил по много времени, практикуясь на различных инструментах, создавая новую музыку. "Большая часть музыки с моих первых трёх альбомов была написана ещё в подростковом возрасте" - говорит Мехди. "Я сочинил сотни композиций за эти годы".
Музыкальная карьера Мехди разворачивается в 80-х годах. Он пишет музыку для таких телеканалов, как: Feature Films, Discovery Channel, Nova, National Geographic Documentaries; работает с другими музыкантами в качестве продюсера, аранжировщика и программиста. В середине 90-х, узнав о новом музыкальном направлении "new age", он начинает свою сольную карьеру.
-

Треклист&#58;

1997 - Instrumental Dream Vol. 1

Лейбл: Soothing Music
Каталог: SM-1001
Продолжительность: 00:41:36
Треклист:
01. Eastern Sunset
02. Expression
03. Forever In My Heart
04. Starry Sky
05. The Dream
06. White Dove
07. Flight Of The Eagle
08. The Candle And The Butterfly
09. Infinite Love

Отчёт ЕАС&#58;

Exact Audio Copy V0.99 prebeta 3 from 28. July 2007
EAC extraction logfile from 19. September 2007, 3:09
Mehdi / Instrumental Dream (vol 1)
Used drive  : PLEXTOR DVDR   PX-716AL   Adapter: 5  ID: 0
Read mode               : Secure
Utilize accurate stream : Yes
Defeat audio cache      : Yes
Make use of C2 pointers : No
Read offset correction                      : 30
Overread into Lead-In and Lead-Out          : Yes
Fill up missing offset samples with silence : Yes
Delete leading and trailing silent blocks   : No
Null samples used in CRC calculations       : Yes
Used interface                              : Native Win32 interface for Win NT & 2000
Gap handling                                : Appended to previous track
Used output format : Internal WAV Routines
Sample format      : 44.100 Hz; 16 Bit; Stereo
TOC of the extracted CD
     Track |   Start  |  Length  | Start sector | End sector
    ---------------------------------------------------------
        1  |  0:00.00 |  3:38.38 |         0    |    16387
        2  |  3:38.38 |  4:36.50 |     16388    |    37137
        3  |  8:15.13 |  5:10.72 |     37138    |    60459
        4  | 13:26.10 |  4:29.66 |     60460    |    80700
        5  | 17:56.01 |  4:58.40 |     80701    |   103090
        6  | 22:54.41 |  5:04.57 |    103091    |   125947
        7  | 27:59.23 |  4:39.67 |    125948    |   146939
        8  | 32:39.15 |  5:16.46 |    146940    |   170685
        9  | 37:55.61 |  3:40.55 |    170686    |   187240
Track  1
     Filename C:\Park\01 Eastern Sunset.wav
     Pre-gap length  0:00:02.00
     Peak level 100.0 %
     Track quality 99.9 %
     Test CRC 8F92270F
     Copy CRC 8F92270F
     Track not present in AccurateRip database
     Copy OK
Track  2
     Filename C:\Park\02 Expression.wav
     Pre-gap length  0:00:02.00
     Peak level 100.0 %
     Track quality 100.0 %
     Test CRC AC51FE84
     Copy CRC AC51FE84
     Track not present in AccurateRip database
     Copy OK
Track  3
     Filename C:\Park\03 Forever in My heart.wav
     Pre-gap length  0:00:02.00
     Peak level 100.0 %
     Track quality 100.0 %
     Test CRC 38E28844
     Copy CRC 38E28844
     Track not present in AccurateRip database
     Copy OK
Track  4
     Filename C:\Park\04 Starry Sky.wav
     Pre-gap length  0:00:02.00
     Peak level 100.0 %
     Track quality 100.0 %
     Test CRC 79DF3A93
     Copy CRC 79DF3A93
     Track not present in AccurateRip database
     Copy OK
Track  5
     Filename C:\Park\05 The Dream.wav
     Pre-gap length  0:00:02.00
     Peak level 100.0 %
     Track quality 99.9 %
     Test CRC 384140C8
     Copy CRC 384140C8
     Track not present in AccurateRip database
     Copy OK
Track  6
     Filename C:\Park\06 White Dove.wav
     Pre-gap length  0:00:02.00
     Peak level 100.0 %
     Track quality 100.0 %
     Test CRC 429D8427
     Copy CRC 429D8427
     Track not present in AccurateRip database
     Copy OK
Track  7
     Filename C:\Park\07 Flight of the Eagle.wav
     Pre-gap length  0:00:02.00
     Peak level 100.0 %
     Track quality 99.9 %
     Test CRC 3440DE72
     Copy CRC 3440DE72
     Track not present in AccurateRip database
     Copy OK
Track  8
     Filename C:\Park\08 The Candle and the Butterfly.wav
     Pre-gap length  0:00:02.00
     Peak level 100.0 %
     Track quality 100.0 %
     Test CRC 09B1594D
     Copy CRC 09B1594D
     Track not present in AccurateRip database
     Copy OK
Track  9
     Filename C:\Park\09 Infinite Love.wav
     Pre-gap length  0:00:02.00
     Peak level 100.0 %
     Track quality 100.0 %
     Test CRC 5C50540F
     Copy CRC 5C50540F
     Track not present in AccurateRip database
     Copy OK
None of the tracks are present in the AccurateRip database
No errors occurred
End of status report

1999 - Instrumental Odyssey Vol. 2

Лейбл: Soothing Music
Каталог: SM-1002
Продолжительность: 00:54:52
Треклист:
01. Dream Garden
02. Odyssey
03. Ziba's Song
04. Eastern Sunrise
05. Sequoia
06. Joy Of Life
07. Desert Oasis
08. White Rose
09. Moon Dance
10. Another Birthda

Отчёт ЕАС&#58;

Exact Audio Copy V0.99 prebeta 3 from 28. July 2007
EAC extraction logfile from 19. September 2007, 19:35
Mehdi / Instrumental Odyssey
Used drive  : PLEXTOR DVDR   PX-716AL   Adapter: 5  ID: 0
Read mode               : Secure
Utilize accurate stream : Yes
Defeat audio cache      : Yes
Make use of C2 pointers : No
Read offset correction                      : 30
Overread into Lead-In and Lead-Out          : Yes
Fill up missing offset samples with silence : Yes
Delete leading and trailing silent blocks   : No
Null samples used in CRC calculations       : Yes
Used interface                              : Native Win32 interface for Win NT & 2000
Gap handling                                : Not detected, thus appended to previous track
Used output format : Internal WAV Routines
Sample format      : 44.100 Hz; 16 Bit; Stereo
TOC of the extracted CD
     Track |   Start  |  Length  | Start sector | End sector
    ---------------------------------------------------------
        1  |  0:00.00 |  5:06.14 |         0    |    22963
        2  |  5:06.14 |  6:57.30 |     22964    |    54268
        3  | 12:03.44 |  6:32.15 |     54269    |    83683
        4  | 18:35.59 |  5:56.21 |     83684    |   110404
        5  | 24:32.05 |  4:43.55 |    110405    |   131684
        6  | 29:15.60 |  5:44.51 |    131685    |   157535
        7  | 35:00.36 |  4:53.23 |    157536    |   179533
        8  | 39:53.59 |  4:44.27 |    179534    |   200860
        9  | 44:38.11 |  6:34.44 |    200861    |   230454
       10  | 51:12.55 |  3:39.45 |    230455    |   246924
Track  1
     Filename C:\Park\01 Dream Garden.wav
     Peak level 99.9 %
     Track quality 99.9 %
     Test CRC C781AF67
     Copy CRC C781AF67
     Accurately ripped (confidence 1)  [0CD11BDF]
     Copy OK
Track  2
     Filename C:\Park\02 Odyssey.wav
     Peak level 97.7 %
     Track quality 99.9 %
     Test CRC 76729FF4
     Copy CRC 76729FF4
     Accurately ripped (confidence 1)  [7259B2FE]
     Copy OK
Track  3
     Filename C:\Park\03 Ziba's Song.wav
     Peak level 92.5 %
     Track quality 100.0 %
     Test CRC C962EDA1
     Copy CRC C962EDA1
     Accurately ripped (confidence 1)  [5895450D]
     Copy OK
Track  4
     Filename C:\Park\04 Eastern Sunset.wav
     Peak level 99.9 %
     Track quality 99.9 %
     Test CRC 2590DCA9
     Copy CRC 2590DCA9
     Accurately ripped (confidence 1)  [0E896881]
     Copy OK
Track  5
     Filename C:\Park\05 Sequoia.wav
     Peak level 99.9 %
     Track quality 100.0 %
     Test CRC 131B38DF
     Copy CRC 131B38DF
     Accurately ripped (confidence 1)  [C38FE0E0]
     Copy OK
Track  6
     Filename C:\Park\06 Joy Of Life.wav
     Peak level 92.5 %
     Track quality 99.9 %
     Test CRC 859D1EA1
     Copy CRC 859D1EA1
     Accurately ripped (confidence 1)  [0771E4D2]
     Copy OK
Track  7
     Filename C:\Park\07 Desert Oasis.wav
     Peak level 99.9 %
     Track quality 100.0 %
     Test CRC 3F897F4D
     Copy CRC 3F897F4D
     Accurately ripped (confidence 1)  [519E8AF1]
     Copy OK
Track  8
     Filename C:\Park\08 White Rose.wav
     Peak level 99.9 %
     Track quality 100.0 %
     Test CRC E80D8368
     Copy CRC E80D8368
     Accurately ripped (confidence 1)  [4325EA63]
     Copy OK
Track  9
     Filename C:\Park\09 Moon Dance.wav
     Peak level 99.9 %
     Track quality 100.0 %
     Test CRC D7ADFCED
     Copy CRC D7ADFCED
     Accurately ripped (confidence 1)  [1F2B3735]
     Copy OK
Track 10
     Filename C:\Park\10 Another Birthday.wav
     Peak level 79.4 %
     Track quality 100.0 %
     Test CRC 7D162511
     Copy CRC 7D162511
     Accurately ripped (confidence 1)  [90819B71]
     Copy OK
All tracks accurately ripped
No errors occurred
End of status report

2000 - Instrumental Imagery Vol. 3

Лейбл: Soothing Music
Каталог: SM-1003
Продолжительность: 00:50:15
Треклист:
01. Millennium Dance
02. Images Of The Heart
03. Heavenly Moon
04. Twinkling Star
05. Star Gazer
06. Rays Of Love
07. Angel Of Paradise
08. True Love Story
09. Grace And Forgiveness
10. Wedding Song

Отчёт ЕАС&#58;

Exact Audio Copy V0.99 prebeta 3 from 28. July 2007
EAC extraction logfile from 20. September 2007, 15:27
Mehdi / Instrumental Imagery
Used drive  : PLEXTOR DVDR   PX-716AL   Adapter: 5  ID: 0
Read mode               : Secure
Utilize accurate stream : Yes
Defeat audio cache      : Yes
Make use of C2 pointers : No
Read offset correction                      : 30
Overread into Lead-In and Lead-Out          : Yes
Fill up missing offset samples with silence : Yes
Delete leading and trailing silent blocks   : No
Null samples used in CRC calculations       : Yes
Used interface                              : Native Win32 interface for Win NT & 2000
Gap handling                                : Not detected, thus appended to previous track
Used output format : Internal WAV Routines
Sample format      : 44.100 Hz; 16 Bit; Stereo
TOC of the extracted CD
     Track |   Start  |  Length  | Start sector | End sector
    ---------------------------------------------------------
        1  |  0:00.00 |  5:29.36 |         0    |    24710
        2  |  5:29.36 |  6:09.02 |     24711    |    52387
        3  | 11:38.38 |  5:16.03 |     52388    |    76090
        4  | 16:54.41 |  4:44.70 |     76091    |    97460
        5  | 21:39.36 |  5:09.50 |     97461    |   120685
        6  | 26:49.11 |  4:30.10 |    120686    |   140945
        7  | 31:19.21 |  5:26.54 |    140946    |   165449
        8  | 36:46.00 |  4:58.66 |    165450    |   187865
        9  | 41:44.66 |  4:53.31 |    187866    |   209871
       10  | 46:38.22 |  3:37.42 |    209872    |   226188
Track  1
     Filename C:\Park\01 Millenium Dance.wav
     Peak level 100.0 %
     Track quality 100.0 %
     Test CRC ED3AE95E
     Copy CRC ED3AE95E
     Accurately ripped (confidence 1)  [92B51610]
     Copy OK
Track  2
     Filename C:\Park\02 Images of the Heart.wav
     Peak level 100.0 %
     Track quality 100.0 %
     Test CRC 08B768B7
     Copy CRC 08B768B7
     Accurately ripped (confidence 1)  [0C6AF825]
     Copy OK
Track  3
     Filename C:\Park\03 Heavenly Moon.wav
     Peak level 99.9 %
     Track quality 100.0 %
     Test CRC 0DB7CF4C
     Copy CRC 0DB7CF4C
     Accurately ripped (confidence 1)  [B18DB8E4]
     Copy OK
Track  4
     Filename C:\Park\04 Twinkling Star.wav
     Peak level 89.1 %
     Track quality 99.9 %
     Test CRC EEE7E4CF
     Copy CRC EEE7E4CF
     Accurately ripped (confidence 1)  [E8038B0E]
     Copy OK
Track  5
     Filename C:\Park\05 Star Gazer.wav
     Peak level 99.9 %
     Track quality 100.0 %
     Test CRC D0B0FBFC
     Copy CRC D0B0FBFC
     Accurately ripped (confidence 1)  [F978CB0D]
     Copy OK
Track  6
     Filename C:\Park\06 Rays of Love.wav
     Peak level 79.4 %
     Track quality 100.0 %
     Test CRC E8DEF6DC
     Copy CRC E8DEF6DC
     Accurately ripped (confidence 1)  [9EFDF999]
     Copy OK
Track  7
     Filename C:\Park\07 Angel of Paradise.wav
     Peak level 79.4 %
     Track quality 100.0 %
     Test CRC 35232253
     Copy CRC 35232253
     Accurately ripped (confidence 1)  [C5F4EC41]
     Copy OK
Track  8
     Filename C:\Park\08 True Love Story.wav
     Peak level 100.0 %
     Track quality 99.9 %
     Test CRC 40A80DB5
     Copy CRC 40A80DB5
     Accurately ripped (confidence 1)  [D71480E8]
     Copy OK
Track  9
     Filename C:\Park\09 Grace and Forgiveness.wav
     Peak level 99.9 %
     Track quality 100.0 %
     Test CRC 0B7EA02E
     Copy CRC 0B7EA02E
     Accurately ripped (confidence 1)  [C35B4230]
     Copy OK
Track 10
     Filename C:\Park\10 Wedding Song.wav
     Peak level 99.9 %
     Track quality 100.0 %
     Test CRC 50BA8DF9
     Copy CRC 50BA8DF9
     Accurately ripped (confidence 1)  [0DCB53B9]
     Copy OK
All tracks accurately ripped
No errors occurred
End of status report

2001 - Christmas Treasures

Лейбл: Soothing Music
Каталог: SM-1000
Продолжительность: 00:29:09
Треклист:
]01. Joy To The World
02. Angels We Have Heard On High
03. God Rest Ye Merry Gentleman
04. The First Noel
05. Deck The Halls
06. Hark The Herald Angels Sing
07. We Three Kings
08. Silent Night
09. What Child Is This
10. O Come All Ye Faithful

Отчёт ЕАС&#58;

Exact Audio Copy V0.99 prebeta 5 from 4. May 2009
EAC extraction logfile from 25. November 2010, 4:57
Mehdi / Christmas Treasures
Used drive  : PIONEER DVD-RW  DVR-216D   Adapter: 1  ID: 0
Read mode               : Secure
Utilize accurate stream : Yes
Defeat audio cache      : Yes
Make use of C2 pointers : No
Read offset correction                      : 96
Overread into Lead-In and Lead-Out          : No
Fill up missing offset samples with silence : Yes
Delete leading and trailing silent blocks   : No
Null samples used in CRC calculations       : Yes
Used interface                              : Native Win32 interface for Win NT & 2000
Used output format              : User Defined Encoder
Selected bitrate                : 1024 kBit/s
Quality                         : High
Add ID3 tag                     : No
Command line compressor         : C:\Program Files\Exact Audio Copy\FLAC\FLAC.EXE
Additional command line options : -8 -V -T "ARTIST=%a" -T "TITLE=%t" -T "ALBUM=%g" -T "DATE=%y" -T "TRACKNUMBER=%n" -T "GENRE=%m" -T "COMMENT=%e" %s -o %d
TOC of the extracted CD
     Track |   Start  |  Length  | Start sector | End sector
    ---------------------------------------------------------
        1  |  0:00.00 |  3:30.60 |         0    |    15809
        2  |  3:30.60 |  3:00.02 |     15810    |    29311
        3  |  6:30.62 |  2:57.58 |     29312    |    42644
        4  |  9:28.45 |  2:34.36 |     42645    |    54230
        5  | 12:03.06 |  1:57.17 |     54231    |    63022
        6  | 14:00.23 |  2:53.70 |     63023    |    76067
        7  | 16:54.18 |  3:06.42 |     76068    |    90059
        8  | 20:00.60 |  3:22.35 |     90060    |   105244
        9  | 23:23.20 |  2:04.58 |    105245    |   114602
       10  | 25:28.03 |  3:41.54 |    114603    |   131231
Range status and errors
Selected range
     Filename E:\Mehdi\2001- Christmas Treasures.wav
     Peak level 100.0 %
     Range quality 100.0 %
     Test CRC FA9C5A5F
     Copy CRC FA9C5A5F
     Copy OK
No errors occurred
AccurateRip summary
Track  1  not present in database
Track  2  not present in database
Track  3  not present in database
Track  4  not present in database
Track  5  not present in database
Track  6  not present in database
Track  7  not present in database
Track  8  not present in database
Track  9  not present in database
Track 10  not present in database
None of the tracks are present in the AccurateRip database
End of status report

2001 - Instrumental Fantasy Vol. 4

Лейбл: Soothing Music
Каталог: SM-1004
Продолжительность: 00:53:09
Треклист:
01. Eastern Rainbow
02. Fire Dancer
03. Kingdom Of Pearls
04. Mediterranean Dream
05. The Unicorn
06. Peaceful Ocean
07. Fantasia
08. Mirage
09. Stairway To Paradise
10. Sunshine

Отчёт ЕАС&#58;

Exact Audio Copy V0.99 prebeta 3 from 28. July 2007
EAC extraction logfile from 21. September 2007, 16:43
Mehdi / Instrumental Fantasy (Vol 4)
Used drive  : PLEXTOR DVDR   PX-716AL   Adapter: 5  ID: 0
Read mode               : Secure
Utilize accurate stream : Yes
Defeat audio cache      : Yes
Make use of C2 pointers : No
Read offset correction                      : 30
Overread into Lead-In and Lead-Out          : Yes
Fill up missing offset samples with silence : Yes
Delete leading and trailing silent blocks   : No
Null samples used in CRC calculations       : Yes
Used interface                              : Native Win32 interface for Win NT & 2000
Gap handling                                : Not detected, thus appended to previous track
Used output format : Internal WAV Routines
Sample format      : 44.100 Hz; 16 Bit; Stereo
TOC of the extracted CD
     Track |   Start  |  Length  | Start sector | End sector
    ---------------------------------------------------------
        1  |  0:00.00 |  4:43.51 |         0    |    21275
        2  |  4:43.51 |  6:02.67 |     21276    |    48492
        3  | 10:46.43 |  4:35.68 |     48493    |    69185
        4  | 15:22.36 |  5:51.34 |     69186    |    95544
        5  | 21:13.70 |  6:24.05 |     95545    |   124349
        6  | 27:38.00 |  5:10.12 |    124350    |   147611
        7  | 32:48.12 |  6:06.18 |    147612    |   175079
        8  | 38:54.30 |  5:26.66 |    175080    |   199595
        9  | 44:21.21 |  5:01.64 |    199596    |   222234
       10  | 49:23.10 |  3:46.21 |    222235    |   239205
Track  1
     Filename C:\Park\01 Eastern Rainbow.wav
     Peak level 97.7 %
     Track quality 100.0 %
     Test CRC 098806C4
     Copy CRC 098806C4
     Accurately ripped (confidence 1)  [DCD5C024]
     Copy OK
Track  2
     Filename C:\Park\02 Fire Dancer.wav
     Peak level 99.9 %
     Track quality 100.0 %
     Test CRC 7076A724
     Copy CRC 7076A724
     Accurately ripped (confidence 1)  [70C35BB7]
     Copy OK
Track  3
     Filename C:\Park\03 Kingdom Of Pearls.wav
     Peak level 99.9 %
     Track quality 100.0 %
     Test CRC B5A190A0
     Copy CRC B5A190A0
     Accurately ripped (confidence 1)  [CA0EA6E6]
     Copy OK
Track  4
     Filename C:\Park\04 Mediterranean Dream.wav
     Peak level 97.7 %
     Track quality 100.0 %
     Test CRC C73E6457
     Copy CRC C73E6457
     Accurately ripped (confidence 1)  [329C0126]
     Copy OK
Track  5
     Filename C:\Park\05 The Unicorn.wav
     Peak level 97.7 %
     Track quality 100.0 %
     Test CRC DF7E29BA
     Copy CRC DF7E29BA
     Accurately ripped (confidence 1)  [3FA94487]
     Copy OK
Track  6
     Filename C:\Park\06 Peaceful Ocean.wav
     Peak level 99.9 %
     Track quality 99.9 %
     Test CRC 0C6B97B1
     Copy CRC 0C6B97B1
     Accurately ripped (confidence 1)  [1A1ECC18]
     Copy OK
Track  7
     Filename C:\Park\07 Fantasia.wav
     Peak level 97.7 %
     Track quality 99.9 %
     Test CRC 3A9D7053
     Copy CRC 3A9D7053
     Accurately ripped (confidence 1)  [D02F6DB5]
     Copy OK
Track  8
     Filename C:\Park\08 Mirage.wav
     Peak level 100.0 %
     Track quality 100.0 %
     Test CRC D1623B0C
     Copy CRC D1623B0C
     Accurately ripped (confidence 1)  [0C36AA1F]
     Copy OK
Track  9
     Filename C:\Park\09 Stairway To Paradise.wav
     Peak level 99.9 %
     Track quality 99.9 %
     Test CRC 4A88C0FC
     Copy CRC 4A88C0FC
     Accurately ripped (confidence 1)  [9F17710F]
     Copy OK
Track 10
     Filename C:\Park\10 Sunshine.wav
     Peak level 69.2 %
     Track quality 100.0 %
     Test CRC E36D6800
     Copy CRC E36D6800
     Accurately ripped (confidence 1)  [A409F6F6]
     Copy OK
All tracks accurately ripped
No errors occurred
End of status report

2002 - Instrumental Escape Vol. 5

Лейбл: Soothing Music
Каталог: SM-1005
Продолжительность: 00:55:47
Треклист:
01. One Childs Prayer
02. Dusk To Dawn
03. Escape
04. Bridge To Eternity
05. Dance Of Angels
06. Footprints In The Sand
07. Freedom
08. City Of Clouds
09. Images Of Love
10. Memories

Отчёт ЕАС&#58;

Exact Audio Copy V0.99 prebeta 3 from 28. July 2007
EAC extraction logfile from 23. September 2007, 5:26
Mehdi / Instrumental Escape
Used drive  : PLEXTOR DVDR   PX-716AL   Adapter: 5  ID: 0
Read mode               : Secure
Utilize accurate stream : Yes
Defeat audio cache      : Yes
Make use of C2 pointers : No
Read offset correction                      : 30
Overread into Lead-In and Lead-Out          : Yes
Fill up missing offset samples with silence : Yes
Delete leading and trailing silent blocks   : No
Null samples used in CRC calculations       : Yes
Used interface                              : Native Win32 interface for Win NT & 2000
Gap handling                                : Appended to previous track
Used output format : Internal WAV Routines
Sample format      : 44.100 Hz; 16 Bit; Stereo
TOC of the extracted CD
     Track |   Start  |  Length  | Start sector | End sector
    ---------------------------------------------------------
        1  |  0:00.00 |  4:58.36 |         0    |    22385
        2  |  4:58.36 |  5:26.53 |     22386    |    46888
        3  | 10:25.14 |  7:00.38 |     46889    |    78426
        4  | 17:25.52 |  5:47.63 |     78427    |   104514
        5  | 23:13.40 |  6:07.56 |    104515    |   132095
        6  | 29:21.21 |  6:31.11 |    132096    |   161431
        7  | 35:52.32 |  5:21.73 |    161432    |   185579
        8  | 41:14.30 |  5:51.32 |    185580    |   211936
        9  | 47:05.62 |  5:15.52 |    211937    |   235613
       10  | 52:21.39 |  3:26.16 |    235614    |   251079
Track  1
     Filename C:\Park\01 One Childs Prayer.wav
     Pre-gap length  0:00:02.00
     Peak level 99.9 %
     Track quality 100.0 %
     Test CRC C79B4549
     Copy CRC C79B4549
     Track not present in AccurateRip database
     Copy OK
Track  2
     Filename C:\Park\02 Dusk To Dawn.wav
     Pre-gap length  0:00:02.00
     Peak level 99.9 %
     Track quality 100.0 %
     Test CRC 8494738B
     Copy CRC 8494738B
     Track not present in AccurateRip database
     Copy OK
Track  3
     Filename C:\Park\03 Escape.wav
     Pre-gap length  0:00:02.00
     Peak level 99.9 %
     Track quality 100.0 %
     Test CRC E11C6D31
     Copy CRC E11C6D31
     Track not present in AccurateRip database
     Copy OK
Track  4
     Filename C:\Park\04 Bridge To Eternity.wav
     Pre-gap length  0:00:02.00
     Peak level 97.7 %
     Track quality 100.0 %
     Test CRC 906FABC9
     Copy CRC 906FABC9
     Track not present in AccurateRip database
     Copy OK
Track  5
     Filename C:\Park\05 Dance Of Angels.wav
     Pre-gap length  0:00:02.00
     Peak level 99.9 %
     Track quality 100.0 %
     Test CRC A9781072
     Copy CRC A9781072
     Track not present in AccurateRip database
     Copy OK
Track  6
     Filename C:\Park\06 Footprints In The Sand.wav
     Pre-gap length  0:00:02.00
     Peak level 100.0 %
     Track quality 99.9 %
     Test CRC 3B67A381
     Copy CRC 3B67A381
     Track not present in AccurateRip database
     Copy OK
Track  7
     Filename C:\Park\07 Freedom.wav
     Pre-gap length  0:00:02.00
     Peak level 100.0 %
     Track quality 100.0 %
     Test CRC 4DF90BF6
     Copy CRC 4DF90BF6
     Track not present in AccurateRip database
     Copy OK
Track  8
     Filename C:\Park\08 City Of Clouds.wav
     Pre-gap length  0:00:02.00
     Peak level 99.9 %
     Track quality 100.0 %
     Test CRC 4CBB3D51
     Copy CRC 4CBB3D51
     Track not present in AccurateRip database
     Copy OK
Track  9
     Filename C:\Park\09 Images Of Love.wav
     Pre-gap length  0:00:02.00
     Peak level 88.8 %
     Track quality 100.0 %
     Test CRC E8A86399
     Copy CRC E8A86399
     Track not present in AccurateRip database
     Copy OK
Track 10
     Filename C:\Park\10 Memories.wav
     Pre-gap length  0:00:02.00
     Peak level 76.5 %
     Track quality 99.9 %
     Test CRC 642225C1
     Copy CRC 642225C1
     Track not present in AccurateRip database
     Copy OK
None of the tracks are present in the AccurateRip database
No errors occurred
End of status report

2003 - Instrumental Evolution Vol. 6

Лейбл: Soothing Music
Каталог: SM-1006
Продолжительность: 00:59:40
Треклист:
01. Shining Star
02. Evolution Of The Heart
03. Heavens Caravan
04. Flight Of The Butterfly
05. Falling Leaves
06. Summer Breeze
07. Gateway To The Clouds
08. Book Of Roses
09. The First Day Of Spring
10. Heavens Caravan (Reprise)

Отчёт ЕАС&#58;

Exact Audio Copy V0.99 prebeta 3 from 28. July 2007
EAC extraction logfile from 24. September 2007, 3:03
Mehdi / Mehdi Instrumental Evolution
Used drive  : PLEXTOR DVDR   PX-716AL   Adapter: 5  ID: 0
Read mode               : Secure
Utilize accurate stream : Yes
Defeat audio cache      : Yes
Make use of C2 pointers : No
Read offset correction                      : 30
Overread into Lead-In and Lead-Out          : Yes
Fill up missing offset samples with silence : Yes
Delete leading and trailing silent blocks   : No
Null samples used in CRC calculations       : Yes
Used interface                              : Native Win32 interface for Win NT & 2000
Gap handling                                : Not detected, thus appended to previous track
Used output format : Internal WAV Routines
Sample format      : 44.100 Hz; 16 Bit; Stereo
TOC of the extracted CD
     Track |   Start  |  Length  | Start sector | End sector
    ---------------------------------------------------------
        1  |  0:00.00 |  5:38.36 |         0    |    25385
        2  |  5:38.36 |  6:52.18 |     25386    |    56303
        3  | 12:30.54 |  6:14.23 |     56304    |    84376
        4  | 18:45.02 |  6:38.58 |     84377    |   114284
        5  | 25:23.60 |  6:05.65 |    114285    |   141724
        6  | 31:29.50 |  6:05.12 |    141725    |   169111
        7  | 37:34.62 |  7:07.53 |    169112    |   201189
        8  | 44:42.40 |  6:51.11 |    201190    |   232025
        9  | 51:33.51 |  5:34.16 |    232026    |   257091
       10  | 57:07.67 |  2:32.26 |    257092    |   268517
Track  1
     Filename C:\Park\01 Shining Star.wav
     Peak level 97.7 %
     Track quality 100.0 %
     Test CRC 20BC965C
     Copy CRC 20BC965C
     Track not present in AccurateRip database
     Copy OK
Track  2
     Filename C:\Park\02 Evolution of the heart.wav
     Peak level 100.0 %
     Track quality 100.0 %
     Test CRC 6A12A091
     Copy CRC 6A12A091
     Track not present in AccurateRip database
     Copy OK
Track  3
     Filename C:\Park\03 Heavens Caravan.wav
     Peak level 99.9 %
     Track quality 100.0 %
     Test CRC 18005FE9
     Copy CRC 18005FE9
     Track not present in AccurateRip database
     Copy OK
Track  4
     Filename C:\Park\04 Flight of the Butterfly.wav
     Peak level 100.0 %
     Track quality 99.9 %
     Test CRC 10ABD134
     Copy CRC 10ABD134
     Track not present in AccurateRip database
     Copy OK
Track  5
     Filename C:\Park\05 Falling Leaves.wav
     Peak level 100.0 %
     Track quality 100.0 %
     Test CRC 03955E66
     Copy CRC 03955E66
     Track not present in AccurateRip database
     Copy OK
Track  6
     Filename C:\Park\06 Summer Breeze.wav
     Peak level 98.5 %
     Track quality 100.0 %
     Test CRC B83E865D
     Copy CRC B83E865D
     Track not present in AccurateRip database
     Copy OK
Track  7
     Filename C:\Park\07 Gateway to the Clouds.wav
     Peak level 100.0 %
     Track quality 99.9 %
     Test CRC 342FFC2D
     Copy CRC 342FFC2D
     Track not present in AccurateRip database
     Copy OK
Track  8
     Filename C:\Park\08 Book of Roses.wav
     Peak level 100.0 %
     Track quality 100.0 %
     Test CRC 54A9C3DE
     Copy CRC 54A9C3DE
     Track not present in AccurateRip database
     Copy OK
Track  9
     Filename C:\Park\09 The first day of Spring.wav
     Peak level 100.0 %
     Track quality 100.0 %
     Test CRC A27D5C20
     Copy CRC A27D5C20
     Track not present in AccurateRip database
     Copy OK
Track 10
     Filename C:\Park\10 Heavens Caravan(Reprise).wav
     Peak level 67.4 %
     Track quality 100.0 %
     Test CRC 34645CB9
     Copy CRC 34645CB9
     Track not present in AccurateRip database
     Copy OK
None of the tracks are present in the AccurateRip database
No errors occurred
End of status report

2005 - Instrumental Heaven Vol. 7

Лейбл: Soothing Music
Каталог: SM-1007
Продолжительность: 00:51:27
Треклист:
01. Heaven
02. Moments In Bliss
03. Bridge To Paradise
04. Flight Of The Angels
05. Flowers Of Spring
06. Full Moon
07. Sweet Memories
08. Clouds Of Light
09. Rain
10. Peace

Отчёт ЕАС&#58;

Exact Audio Copy V0.99 prebeta 3 from 28. July 2007
EAC extraction logfile from 25. September 2007, 13:44
Mehdi / Instrumental Heaven
Used drive  : PLEXTOR DVDR   PX-716AL   Adapter: 5  ID: 0
Read mode               : Secure
Utilize accurate stream : Yes
Defeat audio cache      : Yes
Make use of C2 pointers : No
Read offset correction                      : 30
Overread into Lead-In and Lead-Out          : Yes
Fill up missing offset samples with silence : Yes
Delete leading and trailing silent blocks   : No
Null samples used in CRC calculations       : Yes
Used interface                              : Native Win32 interface for Win NT & 2000
Gap handling                                : Not detected, thus appended to previous track
Used output format : Internal WAV Routines
Sample format      : 44.100 Hz; 16 Bit; Stereo
TOC of the extracted CD
     Track |   Start  |  Length  | Start sector | End sector
    ---------------------------------------------------------
        1  |  0:00.00 |  5:47.42 |         0    |    26066
        2  |  5:47.42 |  5:31.26 |     26067    |    50917
        3  | 11:18.68 |  4:46.34 |     50918    |    72401
        4  | 16:05.27 |  5:33.15 |     72402    |    97391
        5  | 21:38.42 |  5:47.35 |     97392    |   123451
        6  | 27:26.02 |  5:30.10 |    123452    |   148211
        7  | 32:56.12 |  3:25.61 |    148212    |   163647
        8  | 36:21.73 |  5:54.05 |    163648    |   190202
        9  | 42:16.03 |  3:57.73 |    190203    |   208050
       10  | 46:14.01 |  5:13.72 |    208051    |   231597
Track  1
     Filename C:\Park\01 Heaven.wav
     Peak level 98.9 %
     Track quality 100.0 %
     Test CRC CA206840
     Copy CRC CA206840
     Accurately ripped (confidence 1)  [4ADED6D2]
     Copy OK
Track  2
     Filename C:\Park\02 Moments in Bliss.wav
     Peak level 99.9 %
     Track quality 100.0 %
     Test CRC 4DE71B73
     Copy CRC 4DE71B73
     Accurately ripped (confidence 1)  [86755B78]
     Copy OK
Track  3
     Filename C:\Park\03 Bridge To Paradise.wav
     Peak level 98.7 %
     Track quality 100.0 %
     Test CRC 7064DE8F
     Copy CRC 7064DE8F
     Accurately ripped (confidence 1)  [1EFB5894]
     Copy OK
Track  4
     Filename C:\Park\04 Flight of the Angels.wav
     Peak level 98.6 %
     Track quality 100.0 %
     Test CRC 5C48A160
     Copy CRC 5C48A160
     Accurately ripped (confidence 1)  [334A9A7B]
     Copy OK
Track  5
     Filename C:\Park\05 Flowers of Spring.wav
     Peak level 98.6 %
     Track quality 100.0 %
     Test CRC 2EB4C751
     Copy CRC 2EB4C751
     Accurately ripped (confidence 1)  [B8DBA4E8]
     Copy OK
Track  6
     Filename C:\Park\06 Full Moon.wav
     Peak level 99.9 %
     Track quality 100.0 %
     Test CRC 5C267E62
     Copy CRC 5C267E62
     Accurately ripped (confidence 1)  [FB11B33B]
     Copy OK
Track  7
     Filename C:\Park\07 Sweet Memories.wav
     Peak level 94.5 %
     Track quality 100.0 %
     Test CRC 52059CC2
     Copy CRC 52059CC2
     Accurately ripped (confidence 1)  [76BCE917]
     Copy OK
Track  8
     Filename C:\Park\08 Clouds of Light.wav
     Peak level 93.9 %
     Track quality 100.0 %
     Test CRC FB1826F0
     Copy CRC FB1826F0
     Accurately ripped (confidence 1)  [B0EE78A7]
     Copy OK
Track  9
     Filename C:\Park\09 Rain.wav
     Peak level 93.8 %
     Track quality 100.0 %
     Test CRC 7E583B5E
     Copy CRC 7E583B5E
     Accurately ripped (confidence 1)  [45807C02]
     Copy OK
Track 10
     Filename C:\Park\10 Peace.wav
     Peak level 95.2 %
     Track quality 100.0 %
     Test CRC C60AFD7B
     Copy CRC C60AFD7B
     Accurately ripped (confidence 1)  [1994E22B]
     Copy OK
All tracks accurately ripped
No errors occurred
End of status report

2008 - Instrumental Paradise Vol. 8

Лейбл: Soothing Music
Каталог: SM-1008
Продолжительность: 00:59:23
Треклист:
01. Steps To Paradise
02. Eternal Bliss
03. Guiding Light
04. Heavens Rain
05. Utopian Dance
06. Sacred Gathering
07. Blossoming Flowers
08. Connecting Prayer
09. Trees In The Breeze
10. Prayers Answered

Отчёт ЕАС&#58;

Exact Audio Copy V0.99 prebeta 3 from 28. July 2007
EAC extraction logfile from 26. September 2007, 15:54
Mehdi / Vol. 6 Instrumental Paradise
Used drive  : PLEXTOR DVDR   PX-716AL   Adapter: 5  ID: 0
Read mode               : Secure
Utilize accurate stream : Yes
Defeat audio cache      : Yes
Make use of C2 pointers : No
Read offset correction                      : 30
Overread into Lead-In and Lead-Out          : Yes
Fill up missing offset samples with silence : Yes
Delete leading and trailing silent blocks   : No
Null samples used in CRC calculations       : Yes
Used interface                              : Native Win32 interface for Win NT & 2000
Gap handling                                : Not detected, thus appended to previous track
Used output format : Internal WAV Routines
Sample format      : 44.100 Hz; 16 Bit; Stereo
TOC of the extracted CD
     Track |   Start  |  Length  | Start sector | End sector
    ---------------------------------------------------------
        1  |  0:00.00 |  5:36.17 |         0    |    25216
        2  |  5:36.17 |  6:44.30 |     25217    |    55546
        3  | 12:20.47 |  5:42.16 |     55547    |    81212
        4  | 18:02.63 |  7:13.63 |     81213    |   113750
        5  | 25:16.51 |  4:52.70 |    113751    |   135720
        6  | 30:09.46 |  5:23.63 |    135721    |   160008
        7  | 35:33.34 |  6:47.05 |    160009    |   190538
        8  | 42:20.39 |  7:16.10 |    190539    |   223248
        9  | 49:36.49 |  6:16.05 |    223249    |   251453
       10  | 55:52.54 |  3:30.58 |    251454    |   267261
Track  1
     Filename C:\Park\01 Steps To Paradise.wav
     Peak level 99.9 %
     Track quality 100.0 %
     Test CRC AA1A9138
     Copy CRC AA1A9138
     Track not present in AccurateRip database
     Copy OK
Track  2
     Filename C:\Park\02 Eternal Bliss.wav
     Peak level 98.8 %
     Track quality 100.0 %
     Test CRC A2ED9A89
     Copy CRC A2ED9A89
     Track not present in AccurateRip database
     Copy OK
Track  3
     Filename C:\Park\03 Guiding Light.wav
     Peak level 98.8 %
     Track quality 100.0 %
     Test CRC AA8B9A9B
     Copy CRC AA8B9A9B
     Track not present in AccurateRip database
     Copy OK
Track  4
     Filename C:\Park\04 Heavens Rain.wav
     Peak level 99.9 %
     Track quality 100.0 %
     Test CRC B3640195
     Copy CRC B3640195
     Track not present in AccurateRip database
     Copy OK
Track  5
     Filename C:\Park\05 Utopian Dance.wav
     Peak level 98.8 %
     Track quality 100.0 %
     Test CRC 88D6669A
     Copy CRC 88D6669A
     Track not present in AccurateRip database
     Copy OK
Track  6
     Filename C:\Park\06 Sacred Gathering.wav
     Peak level 99.9 %
     Track quality 100.0 %
     Test CRC 39561EE7
     Copy CRC 39561EE7
     Track not present in AccurateRip database
     Copy OK
Track  7
     Filename C:\Park\07 Blossoming Flowers.wav
     Peak level 99.9 %
     Track quality 100.0 %
     Test CRC 627F0F47
     Copy CRC 627F0F47
     Track not present in AccurateRip database
     Copy OK
Track  8
     Filename C:\Park\08 Connecting Prayer.wav
     Peak level 98.8 %
     Track quality 100.0 %
     Test CRC 1CF74E9E
     Copy CRC 1CF74E9E
     Track not present in AccurateRip database
     Copy OK
Track  9
     Filename C:\Park\09 Trees In The Breeze.wav
     Peak level 98.8 %
     Track quality 100.0 %
     Test CRC B88F486B
     Copy CRC B88F486B
     Track not present in AccurateRip database
     Copy OK
Track 10
     Filename C:\Park\10 Prayers Answered.wav
     Peak level 98.8 %
     Track quality 100.0 %
     Test CRC 95CA64B6
     Copy CRC D91FF862
     Track not present in AccurateRip database
     Copy OK
None of the tracks are present in the AccurateRip database
No errors occurred
End of status report
--
Яндекс.Метрика
Рейтинг@Mail.ru