(Hard Rock) UFO - A Conspiracy Of Stars (Umited Edition) - 2015 [FLAC, image+.cue, lossless]

 

Создавать темы 22-Фев-2015 18:44

-UFO / A Conspiracy Of Stars (Umited Edition)-- Год издания: 2015
Страна: UK
Жанр: Hard Rock
Продолжительность: 00:50:39-Лейбл издания: Steamhammer
Страна-выпуска диска: Germany
Номер по каталогу: SPV 267740 CD
Формат: FLAC
Битрейт аудио: lossless
Тип рипа: image+.cue
Наличие сканов в содержимом раздачи: да

Трэклист

01. The Killing Kind (04:01)
02. Run Boy Run (04:19)
03. Ballad Of The Left Hand Gun (04:30)
04. Sugar Cane (06:11)
05. Devils In The Detail (05:12)
06. Precious Cargo (05:52)
07. The Real Deal (04:07)
08. One And Only (03:58)
09. Messiah Of Love (04:35)
10. Rollin Rollin (05:19)
11. King Of The Hill (02:41)

Лог создания рипа

Exact Audio Copy V1.0 beta 3 from 29. August 2011
EAC extraction logfile from 21. February 2015, 17:41
Ufo / A Conspiracy Of Stars
Used drive  : HL-DT-STDVDRAM GU40N   Adapter: 0  ID: 1
Read mode               : Secure
Utilize accurate stream : Yes
Defeat audio cache      : Yes
Make use of C2 pointers : No
Read offset correction                      : 103
Overread into Lead-In and Lead-Out          : No
Fill up missing offset samples with silence : Yes
Delete leading and trailing silent blocks   : No
Null samples used in CRC calculations       : Yes
Used interface                              : Installed external ASPI interface
Used output format              : User Defined Encoder
Selected bitrate                : 128 kBit/s
Quality                         : High
Add ID3 tag                     : No
Command line compressor         : C:\Program Files (x86)\AudioConverter\AudioConverter.exe
Additional command line options :  -V -8 -T "Date=%year%" -T "Genre=%genre%" %source%
TOC of the extracted CD
Track |   Start  |  Length  | Start sector | End sector
---------------------------------------------------------
1  |  0:00.00 |  4:00.08 |         0    |    18007
2  |  4:00.08 |  4:18.24 |     18008    |    37381
3  |  8:18.32 |  4:29.29 |     37382    |    57585
4  | 12:47.61 |  6:10.42 |     57586    |    85377
5  | 18:58.28 |  5:11.48 |     85378    |   108750
6  | 24:10.01 |  5:51.39 |    108751    |   135114
7  | 30:01.40 |  4:06.56 |    135115    |   153620
8  | 34:08.21 |  3:57.10 |    153621    |   171405
9  | 38:05.31 |  4:34.15 |    171406    |   191970
10  | 42:39.46 |  5:18.39 |    191971    |   215859
11  | 47:58.10 |  2:40.27 |    215860    |   227886
Range status and errors
Selected range
Filename C:\Users\workutagin\Desktop\Neuer Ordner\Ufo - A Conspiracy Of Stars.wav
Peak level 99.9 %
Extraction speed 2.0 X
Range quality 99.9 %
Test CRC 54A91FE9
Copy CRC 54A91FE9
Copy OK
No errors occurred
AccurateRip summary
Track  1  not present in database
Track  2  not present in database
Track  3  not present in database
Track  4  not present in database
Track  5  not present in database
Track  6  not present in database
Track  7  not present in database
Track  8  not present in database
Track  9  not present in database
Track 10  not present in database
Track 11  not present in database
None of the tracks are present in the AccurateRip database
End of status report

Индексная карта (non-compilant .cue)

REM GENRE "Hard Rock"
REM DATE 2015
REM DISCID 7D0BDE0B
REM COMMENT "ExactAudioCopy v1.0b3"
PERFORMER "Ufo"
TITLE "A Conspiracy Of Stars"
FILE "Ufo - A Conspiracy Of Stars.flac" WAVE
TRACK 01 AUDIO
TITLE "The Killing Kind "
PERFORMER "Ufo"
INDEX 01 00:00:00
TRACK 02 AUDIO
TITLE "Run Boy Run"
PERFORMER "Ufo"
INDEX 00 03:58:09
INDEX 01 04:00:08
TRACK 03 AUDIO
TITLE "Ballad Of The Left Hand Gun"
PERFORMER "Ufo"
INDEX 00 08:16:33
INDEX 01 08:18:32
TRACK 04 AUDIO
TITLE "Sugar Cane"
PERFORMER "Ufo"
INDEX 00 12:45:62
INDEX 01 12:47:61
TRACK 05 AUDIO
TITLE "Devils In The Detail"
PERFORMER "Ufo"
INDEX 00 18:56:29
INDEX 01 18:58:28
TRACK 06 AUDIO
TITLE "Precious Cargo"
PERFORMER "Ufo"
INDEX 00 24:08:01
INDEX 01 24:10:01
TRACK 07 AUDIO
TITLE "The Real Deal"
PERFORMER "Ufo"
INDEX 00 29:59:41
INDEX 01 30:01:40
TRACK 08 AUDIO
TITLE "One And Only"
PERFORMER "Ufo"
INDEX 00 34:06:22
INDEX 01 34:08:21
TRACK 09 AUDIO
TITLE "Messiah Of Love"
PERFORMER "Ufo"
INDEX 00 38:03:32
INDEX 01 38:05:31
TRACK 10 AUDIO
TITLE "Rollin Rollin  "
PERFORMER "Ufo"
INDEX 00 42:37:48
INDEX 01 42:39:46
TRACK 11 AUDIO
TITLE "King Of The Hill"
PERFORMER "Ufo"
INDEX 00 47:56:11
INDEX 01 47:58:10

Лог Audiochecker

AUDIOCHECKER v2.0 beta (build 457) - by Dester - [email protected]
~~~~~~~~~~~~~~~~~~~~~~~~~~~~~~~~~~
Started at: воскресенье, 22. 02. 2015. - 18:13.20
1 file found
1 -===- D:\Torrent files\UFO - 2015 - A Conspiracy Of Stars\Ufo - A Conspiracy Of Stars.flac
Extracted successfully
Conclusion: this track is CDDA with probability 100%
Tempfile successfully deleted.
Finished at: воскресенье, 22. 02. 2015. - 18:15.47 (operation time: 0:02.26)

Скриншот спектра частот

--Не забываем говорить
Яндекс.Метрика
Рейтинг@Mail.ru