[ Сегодня на трекере фрилич! Идет свободное скачивание без начисления Download ]

(Disco,Pop)VA - Disco Hits 80 - 90x (Russian) vol. 1 - 3 (1994 -1997) [(Compilation 2007, 2008), APE, (image+cue), Lossless]

 

Создавать темы 21-Фев-2015 11:38

-VA - Disco Hits 80 - 90x (Russian) vol. 1 - 3 (1994 -1997) (Compilation 2007) 2008
Страна: Россия
Жанр: Pop,Disco
Год выпуска: 2007, 2008
Страна производитель диска: Россия
Издатель:(Лейбл) JAM Group International
Номер по каталогу: 010 322-2, 010 335-2, 010 380-2
Формат: APE
тип рипа: (Image + *cue)
Битрейт аудио: Lossless
Продолжительность: 03:36:14
- -

Disco Хиты 80 - 90 . Выпуск 1 (01:05:42)

01. Мираж - Я жду тебя(04:05)
02. Кар - мэн - Лондон,Good bay(04:19)
03. Комбинация - Russian girls(05:28)
04. Владимирская Света - Мальчик мой(03:48)
05. Селивёрстов Игорь - Шпана(03:09)
06. Технология - Нажми на кнопку(04:28)
07. В.Попов и группа '' Твой день '' - Влюблённый май(05:17)
08. Ника - Карие глаза(03:34)
09. Бархатный сезон - Свечи(04:38)
10. Суровый февраль - Милая мадам(04:24)
11. Левостороннее движение - Посмотри,на кого ты стал похож(05:03)
12. Невский проспект - Не обижайся(03:28)
13. Божья коровка - Гранитный камушек(04:36)
14. Клеопатра - Мой милый мальчик(04:55)
15. Маленький принц - Мы встретимся снова(04:22)

Disco Хиты 80 - 90 . Выпуск 2 (01:17:48)

01. Технология - Всё,что ты хочешь(04:11)
02. Мираж - Я больше не прошу (04:01)
03. Комбинация - Два кусочека колбаски(04:23)
04. Кар - мэн - Это Сан-Франциско(04:04)
05. Владимирская Светлана - Дави на газ(04:46)
06. Маленький принц - Я не знаю,зачем мне ты(05:21)
07. Жуков Рома - Девчонки,мои девчонки(04:52)
08. Клеопатра - Только имя(04:55)
09. КАИР - Девочка самый кайф(03:30)
10. Левостороннее движение - Мой номер 2-17-03(04:13)
11. Суровый февраль - Мадемуазель каприза(04:41)
12. Невский проспект - Мы с тобой(05:11)
13. Бархатный сезон - В эту злую ночь(04:35)
14. МГК - Ах,какие ты ...(04:55)
15. Шан-хай - Солнечный зайчик(04:21)
16. Ника - Три хризантемы(04:06)
17. Arrival - Простые слова(05:35)

Disco Хиты 80 - 90 . Выпуск 3 (01:11:44)

01. Технология - Полчаса(03:22)
02. Комбинация - American Boy(04:43)
03. Рома Жуков - Млечный путь(04:28)
04. Мираж - Скорость(04:20)
05. Империя - Поезд на Ленинград(04:43)
06. Комиссар - Ты уйдёшь(05:03)
07. Колледж - Мой милый ангел(04:09)
08. Ника - Я не верю(03:37)
09. Каир - Товарищ Чин Гач Гук(03:57)
10. Шоколад Виктория - Алло, Алёнка(04:38)
11. Каролина - Дискобар(04:00)
12. Нэнси - Дым сигарет с ментолом(05:53)
13. Арамис - Девочка ждёт, мальчик не идёт(03:47)
14. Твой день - Мама(05:07)
15. Анонс - Оля и СПИД(03:45)
16. Сергей Васюта и Сладкий сон - На белом покрывале января(06:05)
--

Лог создания рипа

CD 1

Exact Audio Copy V0.99 prebeta 5 from 4. May 2009
Отчёт EAC об извлечении, выполненном 30. октября 2009, 12:32
Various / Disco Хиты 80 - 90 . Выпуск 1
Дисковод: HL-DT-STDVD-ROM GDR8161B   Adapter: 1  ID: 0
Режим чтения                 : Достоверность
Использование точного потока : Да
Отключение кэша аудио        : Да
Использование указателей C2  : Нет
Коррекция смещения при чтении                     : 102
Способность читать области Lead-in и Lead-out     : Нет
Заполнение пропущенных сэмплов тишиной            : Да
Удаление блоков с тишиной в начале и конце        : Нет
При вычислениях CRC использовались нулевые сэмплы : Да
Интерфейс                                         : Встроенный Win32-интерфейс для Win NT/2000
Выходной формат : Внутренние WAV-операции
Формат сэмплов  : 44.100 Гц; 16 бит; стерео
TOC извлечённого CD
Трек |   Старт  | Длительность | Начальный сектор | Конечный сектор
---------------------------------------------------------------------
1  |  0:00.00 |    4:05.03   |           0      |      18377
2  |  4:05.03 |    4:19.38   |       18378      |      37840
3  |  8:24.41 |    5:28.66   |       37841      |      62506
4  | 13:53.32 |    3:48.48   |       62507      |      79654
5  | 17:42.05 |    3:09.72   |       79655      |      93901
6  | 20:52.02 |    4:28.43   |       93902      |     114044
7  | 25:20.45 |    5:17.03   |      114045      |     137822
8  | 30:37.48 |    3:34.38   |      137823      |     153910
9  | 34:12.11 |    4:38.53   |      153911      |     174813
10  | 38:50.64 |    4:24.68   |      174814      |     194681
11  | 43:15.57 |    5:03.28   |      194682      |     217434
12  | 48:19.10 |    3:28.43   |      217435      |     233077
13  | 51:47.53 |    4:36.52   |      233078      |     253829
14  | 56:24.30 |    4:55.26   |      253830      |     275980
15  | 61:19.56 |    4:22.32   |      275981      |     295662
Характеристики диапазона извлечения и сообщения об ошибках
Выбранный диапазон
Имя файла C:\Documents and Settings\ТЕЛЕГИД\Рабочий стол\Новая папка\Various - Disco Хиты 80 - 90 . Выпуск 1.wav
Пиковый уровень 100.0 %
Качество диапазона 100.0 %
CRC теста 20F659C0
CRC копии 20F659C0
Копирование... OK
Ошибок не произошло
AccurateRip: сводка
Трек  1  нет в базе данных
Трек  2  нет в базе данных
Трек  3  нет в базе данных
Трек  4  нет в базе данных
Трек  5  нет в базе данных
Трек  6  нет в базе данных
Трек  7  нет в базе данных
Трек  8  нет в базе данных
Трек  9  нет в базе данных
Трек 10  нет в базе данных
Трек 11  нет в базе данных
Трек 12  нет в базе данных
Трек 13  нет в базе данных
Трек 14  нет в базе данных
Трек 15  нет в базе данных
Ни одного трека нет в базе AccurateRip
Конец отчёта

CD 2

Exact Audio Copy V0.99 prebeta 5 from 4. May 2009
Отчёт EAC об извлечении, выполненном 2. ноября 2009, 15:18
Various / Disco Хиты 80 - 90 . Выпуск 2
Дисковод: HL-DT-STDVD-RAM GH22NS30   Adapter: 3  ID: 0
Режим чтения                 : Достоверность
Использование точного потока : Да
Отключение кэша аудио        : Да
Использование указателей C2  : Нет
Коррекция смещения при чтении                     : 102
Способность читать области Lead-in и Lead-out     : Нет
Заполнение пропущенных сэмплов тишиной            : Да
Удаление блоков с тишиной в начале и конце        : Нет
При вычислениях CRC использовались нулевые сэмплы : Да
Интерфейс                                         : Установленный внешний ASPI-интерфейс
Выходной формат : Внутренние WAV-операции
Формат сэмплов  : 44.100 Гц; 16 бит; стерео
TOC извлечённого CD
Трек |   Старт  | Длительность | Начальный сектор | Конечный сектор
---------------------------------------------------------------------
1  |  0:00.00 |    4:11.59   |           0      |      18883
2  |  4:11.59 |    4:01.46   |       18884      |      37004
3  |  8:13.30 |    4:23.46   |       37005      |      56775
4  | 12:37.01 |    4:04.16   |       56776      |      75091
5  | 16:41.17 |    4:46.03   |       75092      |      96544
6  | 21:27.20 |    5:21.57   |       96545      |     120676
7  | 26:49.02 |    4:52.67   |      120677      |     142643
8  | 31:41.69 |    4:55.17   |      142644      |     164785
9  | 36:37.11 |    3:30.27   |      164786      |     180562
10  | 40:07.38 |    4:13.61   |      180563      |     199598
11  | 44:21.24 |    4:41.44   |      199599      |     220717
12  | 49:02.68 |    5:11.07   |      220718      |     244049
13  | 54:14.00 |    4:35.42   |      244050      |     264716
14  | 58:49.42 |    4:55.72   |      264717      |     286913
15  | 63:45.39 |    4:21.37   |      286914      |     306525
16  | 68:07.01 |    4:06.49   |      306526      |     325024
17  | 72:13.50 |    5:35.08   |      325025      |     350157
Характеристики диапазона извлечения и сообщения об ошибках
Выбранный диапазон
Имя файла C:\Users\[email protected]\Desktop\Disco Хиты 80 - 90 . Выпуск 2(lossless)\Various - Disco Хиты 80 - 90 . Выпуск 2.wav
Пиковый уровень 99.0 %
Качество диапазона 99.9 %
CRC теста EFF74216
CRC копии EFF74216
Копирование... OK
Ошибок не произошло
AccurateRip: сводка
Трек  1  нет в базе данных
Трек  2  нет в базе данных
Трек  3  нет в базе данных
Трек  4  нет в базе данных
Трек  5  нет в базе данных
Трек  6  нет в базе данных
Трек  7  нет в базе данных
Трек  8  нет в базе данных
Трек  9  нет в базе данных
Трек 10  нет в базе данных
Трек 11  нет в базе данных
Трек 12  нет в базе данных
Трек 13  нет в базе данных
Трек 14  нет в базе данных
Трек 15  нет в базе данных
Трек 16  нет в базе данных
Трек 17  нет в базе данных
Ни одного трека нет в базе AccurateRip
Конец отчёта

CD 3

Exact Audio Copy V0.99 prebeta 5 from 4. May 2009
Отчёт EAC об извлечении, выполненном 28. января 2010, 23:16
Various / Disco Хиты 80 - 90 . Выпуск 3
Дисковод: HL-DT-STDVD-RAM GH22NS30   Adapter: 3  ID: 0
Режим чтения                 : Достоверность
Использование точного потока : Да
Отключение кэша аудио        : Да
Использование указателей C2  : Нет
Коррекция смещения при чтении                     : 102
Способность читать области Lead-in и Lead-out     : Нет
Заполнение пропущенных сэмплов тишиной            : Да
Удаление блоков с тишиной в начале и конце        : Нет
При вычислениях CRC использовались нулевые сэмплы : Да
Интерфейс                                         : Установленный внешний ASPI-интерфейс
Выходной формат : Внутренние WAV-операции
Формат сэмплов  : 44.100 Гц; 16 бит; стерео
TOC извлечённого CD
Трек |   Старт  | Длительность | Начальный сектор | Конечный сектор
---------------------------------------------------------------------
1  |  0:00.00 |    3:22.33   |           0      |      15182
2  |  3:22.33 |    4:43.12   |       15183      |      36419
3  |  8:05.45 |    4:28.50   |       36420      |      56569
4  | 12:34.20 |    4:20.50   |       56570      |      76119
5  | 16:54.70 |    4:43.63   |       76120      |      97407
6  | 21:38.58 |    5:03.35   |       97408      |     120167
7  | 26:42.18 |    4:09.07   |      120168      |     138849
8  | 30:51.25 |    3:37.30   |      138850      |     155154
9  | 34:28.55 |    3:57.48   |      155155      |     172977
10  | 38:26.28 |    4:38.31   |      172978      |     193858
11  | 43:04.59 |    4:00.26   |      193859      |     211884
12  | 47:05.10 |    5:53.00   |      211885      |     238359
13  | 52:58.10 |    3:47.72   |      238360      |     255456
14  | 56:46.07 |    5:07.58   |      255457      |     278539
15  | 61:53.65 |    3:45.28   |      278540      |     295442
16  | 65:39.18 |    6:05.45   |      295443      |     322862
Характеристики диапазона извлечения и сообщения об ошибках
Выбранный диапазон
Имя файла C:\Users\[email protected]\Desktop\Disco Хиты 80 - 90 . Выпуск 3(lossless)\Various - Disco Хиты 80 - 90 . Выпуск 3.wav
Пиковый уровень 98.9 %
Качество диапазона 100.0 %
CRC теста 5686B703
CRC копии 5686B703
Копирование... OK
Ошибок не произошло
AccurateRip: сводка
Трек  1  нет в базе данных
Трек  2  нет в базе данных
Трек  3  нет в базе данных
Трек  4  нет в базе данных
Трек  5  нет в базе данных
Трек  6  нет в базе данных
Трек  7  нет в базе данных
Трек  8  нет в базе данных
Трек  9  нет в базе данных
Трек 10  нет в базе данных
Трек 11  нет в базе данных
Трек 12  нет в базе данных
Трек 13  нет в базе данных
Трек 14  нет в базе данных
Трек 15  нет в базе данных
Трек 16  нет в базе данных
Ни одного трека нет в базе AccurateRip
Конец отчёта

Индексная карта (non-compilant .cue)

CD 1

REM GENRE Disco
REM DATE 2007
REM DISCID CB0F660F
REM COMMENT "ExactAudioCopy v0.99pb5"
PERFORMER "Various"
TITLE "Disco Хиты 80 - 90 . Выпуск 1"
FILE "Various - Disco Хиты 80 - 90 . Выпуск 1.wav" WAVE
TRACK 01 AUDIO
TITLE "Я жду тебя"
PERFORMER "Мираж"
INDEX 01 00:00:00
TRACK 02 AUDIO
TITLE "Лондон,Good bay"
PERFORMER "Кар - мэн"
INDEX 01 04:05:03
TRACK 03 AUDIO
TITLE "Russian girls"
PERFORMER "Комбинация"
INDEX 01 08:24:41
TRACK 04 AUDIO
TITLE "Мальчик мой"
PERFORMER "Владимирская Света"
INDEX 01 13:53:32
TRACK 05 AUDIO
TITLE "Шпана"
PERFORMER "Селивёрстов Игорь"
INDEX 01 17:42:05
TRACK 06 AUDIO
TITLE "Нажми на кнопку"
PERFORMER "Технология"
INDEX 01 20:52:02
TRACK 07 AUDIO
TITLE "Влюблённый май"
PERFORMER "В.Попов и группа '' Твой день ''"
INDEX 01 25:20:45
TRACK 08 AUDIO
TITLE "Карие глаза"
PERFORMER "Ника"
INDEX 01 30:37:48
TRACK 09 AUDIO
TITLE "Свечи"
PERFORMER "Бархатный сезон"
INDEX 01 34:12:11
TRACK 10 AUDIO
TITLE "Милая мадам"
PERFORMER "Суровый февраль"
INDEX 01 38:50:64
TRACK 11 AUDIO
TITLE "Посмотри,на кого ты стал похож"
PERFORMER "Левостороннее движение"
INDEX 01 43:15:57
TRACK 12 AUDIO
TITLE "Не обижайся"
PERFORMER "Невский проспект"
INDEX 01 48:19:10
TRACK 13 AUDIO
TITLE "Гранитный камушек"
PERFORMER "Божья коровка"
INDEX 01 51:47:53
TRACK 14 AUDIO
TITLE "Мой милый мальчик"
PERFORMER "Клеопатра"
INDEX 01 56:24:30
TRACK 15 AUDIO
TITLE "Мы встретимся снова"
PERFORMER "Маленький принц"
INDEX 01 61:19:56

CD 2

REM GENRE Disco
REM DATE 2007
REM DISCID FD123C11
REM COMMENT "ExactAudioCopy v0.99pb5"
PERFORMER "Various"
TITLE "Disco Хиты 80 - 90 . Выпуск 2"
FILE "Various - Disco Хиты 80 - 90 . Выпуск 2.wav" WAVE
TRACK 01 AUDIO
TITLE "Всё,что ты хочешь"
PERFORMER "Технология"
INDEX 01 00:00:00
TRACK 02 AUDIO
TITLE "Я больше не прошу "
PERFORMER "Мираж"
INDEX 00 04:09:59
INDEX 01 04:11:59
TRACK 03 AUDIO
TITLE "Два кусочека колбаски"
PERFORMER "Комбинация"
INDEX 00 08:11:30
INDEX 01 08:13:30
TRACK 04 AUDIO
TITLE "Это Сан-Франциско"
PERFORMER "Кар - мэн"
INDEX 00 12:35:01
INDEX 01 12:37:01
TRACK 05 AUDIO
TITLE "Дави на газ"
PERFORMER "Владимирская Светлана"
INDEX 00 16:39:17
INDEX 01 16:41:17
TRACK 06 AUDIO
TITLE "Я не знаю,зачем мне ты"
PERFORMER "Маленький принц"
INDEX 00 21:25:20
INDEX 01 21:27:20
TRACK 07 AUDIO
TITLE "Девчонки,мои девчонки"
PERFORMER "Жуков Рома"
INDEX 00 26:47:02
INDEX 01 26:49:02
TRACK 08 AUDIO
TITLE "Только имя"
PERFORMER "Клеопатра"
INDEX 00 31:39:69
INDEX 01 31:41:69
TRACK 09 AUDIO
TITLE "Девочка самый кайф"
PERFORMER "КАИР"
INDEX 00 36:35:11
INDEX 01 36:37:11
TRACK 10 AUDIO
TITLE "Мой номер 2-17-03"
PERFORMER "Левостороннее движение"
INDEX 00 40:05:38
INDEX 01 40:07:38
TRACK 11 AUDIO
TITLE "Мадемуазель каприза"
PERFORMER "Суровый февраль"
INDEX 00 44:19:24
INDEX 01 44:21:24
TRACK 12 AUDIO
TITLE "Мы с тобой"
PERFORMER "Невский проспект"
INDEX 00 49:00:68
INDEX 01 49:02:68
TRACK 13 AUDIO
TITLE "В эту злую ночь"
PERFORMER "Бархатный сезон"
INDEX 00 54:12:00
INDEX 01 54:14:00
TRACK 14 AUDIO
TITLE "Ах,какие ты ..."
PERFORMER "МГК"
INDEX 00 58:47:42
INDEX 01 58:49:42
TRACK 15 AUDIO
TITLE "Солнечный зайчик"
PERFORMER "Шан-хай"
INDEX 00 63:43:39
INDEX 01 63:45:39
TRACK 16 AUDIO
TITLE "Три хризантемы"
PERFORMER "Ника"
INDEX 00 68:05:01
INDEX 01 68:07:01
TRACK 17 AUDIO
TITLE "Простые слова"
PERFORMER "Arrival"
INDEX 00 72:11:50
INDEX 01 72:13:50

CD 3

REM GENRE Pop
REM DATE 2008
REM DISCID CF10D010
REM COMMENT "ExactAudioCopy v0.99pb5"
PERFORMER "Various"
TITLE "Disco Хиты 80 - 90 . Выпуск 3"
FILE "Various - Disco Хиты 80 - 90 . Выпуск 3.wav" WAVE
TRACK 01 AUDIO
TITLE "Полчаса"
PERFORMER "Технология"
INDEX 01 00:00:00
TRACK 02 AUDIO
TITLE "American Boy"
PERFORMER "Комбинация"
INDEX 01 03:22:33
TRACK 03 AUDIO
TITLE "Млечный путь"
PERFORMER "Рома Жуков"
INDEX 01 08:05:45
TRACK 04 AUDIO
TITLE "Скорость"
PERFORMER "Мираж"
INDEX 01 12:34:20
TRACK 05 AUDIO
TITLE "Поезд на Ленинград"
PERFORMER "Империя"
INDEX 01 16:54:70
TRACK 06 AUDIO
TITLE "Ты уйдёшь"
PERFORMER "Комиссар"
INDEX 01 21:38:58
TRACK 07 AUDIO
TITLE "Мой милый ангел"
PERFORMER "Колледж"
INDEX 01 26:42:18
TRACK 08 AUDIO
TITLE "Я не верю"
PERFORMER "Ника"
INDEX 01 30:51:25
TRACK 09 AUDIO
TITLE "Товарищ Чин Гач Гук"
PERFORMER "Каир"
INDEX 01 34:28:55
TRACK 10 AUDIO
TITLE "Алло, Алёнка"
PERFORMER "Шоколад Виктория"
INDEX 01 38:26:28
TRACK 11 AUDIO
TITLE "Дискобар"
PERFORMER "Каролина"
INDEX 01 43:04:59
TRACK 12 AUDIO
TITLE "Дым сигарет с ментолом"
PERFORMER "Нэнси"
INDEX 01 47:05:10
TRACK 13 AUDIO
TITLE "Девочка ждёт, мальчик не идёт"
PERFORMER "Арамис"
INDEX 01 52:58:10
TRACK 14 AUDIO
TITLE "Мама"
PERFORMER "Твой день"
INDEX 01 56:46:07
TRACK 15 AUDIO
TITLE "Оля и СПИД"
PERFORMER "Анонс"
INDEX 01 61:53:65
TRACK 16 AUDIO
TITLE "На белом покрывале января"
PERFORMER "Сергей Васюта и Сладкий сон"
INDEX 01 65:39:18

Лог Audiochecker

CD 1

AUDIOCHECKER v2.0 beta (build 457) - by Dester - [email protected]
~~~~~~~~~~~~~~~~~~~~~~~~~~~~~~~~~~
Started at: суббота, 21. 02. 2015. - 10:09.20
1 file found
1 -===- D:\Torrent files\VA - Disco Хиты 80 - 90  (3CD)2007,2008,APE\Disco Хиты 80 - 90 . Выпуск 1,APE, 2007\Various - Disco Хиты 80 - 90 . Выпуск 1.ape
Extracted successfully
Conclusion: this track is CDDA with probability 100%
Tempfile successfully deleted.
Finished at: суббота, 21. 02. 2015. - 10:14.35 (operation time: 0:05.14)

CD 2

AUDIOCHECKER v2.0 beta (build 457) - by Dester - [email protected]
~~~~~~~~~~~~~~~~~~~~~~~~~~~~~~~~~~
Started at: суббота, 21. 02. 2015. - 10:14.51
1 file found
1 -===- D:\Torrent files\VA - Disco Хиты 80 - 90  (3CD)2007,2008,APE\Disco Хиты 80 - 90 . Выпуск 2,APE, 2007\Various - Disco Хиты 80 - 90 . Выпуск 2.ape
Extracted successfully
Conclusion: this track is CDDA with probability 100%
Tempfile successfully deleted.
Finished at: суббота, 21. 02. 2015. - 10:19.26 (operation time: 0:04.34)

CD 3

AUDIOCHECKER v2.0 beta (build 457) - by Dester - [email protected]
~~~~~~~~~~~~~~~~~~~~~~~~~~~~~~~~~~
Started at: суббота, 21. 02. 2015. - 10:20.18
1 file found
1 -===- D:\Torrent files\VA - Disco Хиты 80 - 90  (3CD)2007,2008,APE\Disco Хиты 80 - 90 . Выпуск 3,APE, 2008\Various - Disco Хиты 80 - 90 . Выпуск 3.ape
Extracted successfully
Conclusion: this track is CDDA with probability 100%
Tempfile successfully deleted.
Finished at: суббота, 21. 02. 2015. - 10:24.09 (operation time: 0:03.51)

Скриншот спектра частот

--Не забываем говорить -
Яндекс.Метрика
Рейтинг@Mail.ru