Где 042? (Олег Ленциус) [1969 г., военный, DVDRip]

 

Создавать темы 21-Фев-2015 05:54

-Где 042?-- Производство: СССР, Киностудия им. А.Довженко
Режиссер: Олег Ленциус
Жанр: военный
Год выпуска: 1969 г.
Продолжительность: 01:12:29
В ролях: Анатолий Салимоненко, Болот Бейшеналиев, Александр Збруев, Яков Козлов, Владимир Олексеенко, Audris Hadaravicius, Александр Коваленко, Оксана Мелошкина-Описание: В основе сюжета - действительные события начала Великой Отечественной войны. Красноармеец Гаркуша и якут Номоконов после гибели всей команды остаются вдвоем на бронекатере № 042. Выполняя приказ Командования, герои взрывают мост через Днепр, но оказываются в тылу врага. Разными путями на катер попадают пехотинец, директор банка, артист и бежавший из тюрьмы уголовник.-Качество видео: DVDRip
Контейнер: AVI
Видео кодек: XviD
Аудио кодек: AC3
Видео: 688x400; 2252 kbps; 25 fps; 0.327 bit/pixel
Аудио: 448 kbps; 6 ch; 48 kHz
Cубтитры: отсутствуют

Media Info

General
Complete name : D:\Torrent\Gde_042_[Pirat.ca].torrent.avi
Format : AVI
Format/Info : Audio Video Interleave
File size : 1.34 GiB
Duration : 1h 11mn
Overall bit rate : 2 710 Kbps
Writing library : VirtualDub build 35390/release
Video
ID : 0
Format : MPEG-4 Visual
Format profile : Advanced [email protected]
Format settings, BVOP : 2
Format settings, QPel : No
Format settings, GMC : No warppoints
Format settings, Matrix : Default (H.263)
Muxing mode : Packed bitstream
Codec ID : XVID
Codec ID/Hint : XviD
Duration : 1h 11mn
Bit rate : 2 252 Kbps
Width : 688 pixels
Height : 400 pixels
Display aspect ratio : 1.720
Frame rate : 25.000 fps
Color space : YUV
Chroma subsampling : 4:2:0
Bit depth : 8 bits
Scan type : Progressive
Compression mode : Lossy
Bits/(Pixel*Frame) : 0.327
Stream size : 1.12 GiB (83%)
Writing library : XviD 64
Audio
ID : 1
Format : AC-3
Format/Info : Audio Coding 3
Mode extension : CM (complete main)
Format settings, Endianness : Big
Codec ID : 2000
Duration : 1h 11mn
Bit rate mode : Constant
Bit rate : 448 Kbps
Channel(s) : 6 channels
Channel positions : Front: L C R, Side: L R, LFE
Sampling rate : 48.0 KHz
Bit depth : 16 bits
Compression mode : Lossy
Delay relative to video : 8ms
Stream size : 228 MiB (17%)
Alignment : Split accross interleaves
Interleave, duration : 40 ms (1.00 video frame)
Interleave, preload duratio : 500 ms

Скриншоты

Раздача с 14.00 до 2.00 (время московское)
Яндекс.Метрика
Рейтинг@Mail.ru