(Pop) Taco - 2 Albums [1st Press] - 1982-86, FLAC (image+.cue), lossless

 

Создавать темы 18-Фев-2015 17:19

-Taco - After Eight- Жанр: Pop
Год выпуска диска: 1982
Производитель диска: RCA Victor, Japan
Аудио кодек: FLAC
Тип рипа: image+.cue
Битрейт аудио: lossless
Продолжительность: 00:43:55-Трэклист:-01. Singin' In The Rain [0:04:47.25]
02. Tribute To Tino [0:04:18.30]
03. Puttin' On The Ritz [0:04:41.12]
04. I Should Care [0:03:44.43]
05. Carmella [0:03:32.27]
06. La Vie En Rose [0:04:52.20]
07. Cheek To Cheek [0:04:50.43]
08. After Eight [0:03:35.20]
09. Livin' In My Dreamworld [0:03:13.17]
10. Encore (Sweet Gipsy Rose) [0:04:23.73]
11. Thanks A Million [0:01:56.50]

Log

Exact Audio Copy V0.99 prebeta 3 from 28. July 2007
EAC extraction logfile from 14. January 2010, 18:00
Taco / After Eight
Used drive : TSSTcorpCDDVDW SH-S203B Adapter: 3 ID: 2
Read mode : Secure
Utilize accurate stream : Yes
Defeat audio cache : Yes
Make use of C2 pointers : No
Read offset correction : 6
Overread into Lead-In and Lead-Out : No
Fill up missing offset samples with silence : Yes
Delete leading and trailing silent blocks : No
Null samples used in CRC calculations : Yes
Used interface : Installed external ASPI interface
Used output format : User Defined Encoder
Selected bitrate : 1024 kBit/s
Quality : High
Add ID3 tag : Yes
Command line compressor : C:\Program Files\FLAC\flac.exe
Additional command line options : -8 -V -T "ARTIST=%a" -T "TITLE=%t" -T "ALBUM=%g" -T "DATE=%y" -T "TRACKNUMBER=%n" -T "GENRE=%m" -T "COMMENT=%e" %s -o %d
TOC of the extracted CD
Track | Start | Length | Start sector | End sector
---------------------------------------------------------
1 | 0:00.00 | 4:47.25 | 0 | 21549
2 | 4:47.25 | 4:18.30 | 21550 | 40929
3 | 9:05.55 | 4:41.12 | 40930 | 62016
4 | 13:46.67 | 3:44.43 | 62017 | 78859
5 | 17:31.35 | 3:32.27 | 78860 | 94786
6 | 21:03.62 | 4:52.20 | 94787 | 116706
7 | 25:56.07 | 4:50.43 | 116707 | 138499
8 | 30:46.50 | 3:35.20 | 138500 | 154644
9 | 34:21.70 | 3:13.17 | 154645 | 169136
10 | 37:35.12 | 4:23.73 | 169137 | 188934
11 | 41:59.10 | 1:56.50 | 188935 | 197684
Range status and errors
Selected range
Filename T:\CD\Taco - After Eight\Taco - After Eight.wav
Peak level 68.3 %
Range quality 100.0 %
Copy CRC 0CDFF92A
Copy OK
No errors occurred
AccurateRip summary
Track 1 cannot be verified as accurate (confidence 2) [623E0A47], AccurateRip returned [2E18550E]
Track 2 cannot be verified as accurate (confidence 2) [4CDB5478], AccurateRip returned [FFFAAB09]
Track 3 cannot be verified as accurate (confidence 2) [F668F01C], AccurateRip returned [440E4E04]
Track 4 cannot be verified as accurate (confidence 2) [84D3E908], AccurateRip returned [FEC978EF]
Track 5 cannot be verified as accurate (confidence 2) [6A3A54DA], AccurateRip returned [86215834]
Track 6 cannot be verified as accurate (confidence 2) [31BB54A0], AccurateRip returned [2B779420]
Track 7 cannot be verified as accurate (confidence 2) [E21412BF], AccurateRip returned [550817C6]
Track 8 cannot be verified as accurate (confidence 2) [5E0A12EF], AccurateRip returned [8658E9BB]
Track 9 cannot be verified as accurate (confidence 2) [E6B4F417], AccurateRip returned [2A8499CF]
Track 10 cannot be verified as accurate (confidence 2) [F092CD2D], AccurateRip returned [7912344E]
Track 11 cannot be verified as accurate (confidence 2) [FD2F9D2B], AccurateRip returned [24821776]
No tracks could be verified as accurate
You may have a different pressing from the one(s) in the database
End of status report
--Taco - Tell Me That You Like It- Год выпуска диска: 1986
Производитель диска: Polydor, West Germany, Japan
Аудио кодек: FLAC
Тип рипа: image+.cue
Битрейт аудио: lossless
Продолжительность: 00:45:59-Трэклист:
Taco - Tell Me That You Like It
01. You're My Answer To It All [0:04:36.00]
02. Tellin' Everybody [0:03:49.00]
03. Chove Chuva [0:03:37.00]
04. Mas Que Nada [0:04:07.30]
05. Hooked On Life [0:04:09.25]
06. Tell Me That You Like It [0:03:39.07]
07. Love Is A Dangerous Game [0:03:50.35]
08. Where Did Our Love Go [0:03:16.53]
09. I'm Sentimental (Je Pense a Toi) [0:04:02.42]
10. Heartbreak City [0:05:57.08]
11. Ocean Deep [0:04:54.25]

Log

Exact Audio Copy V0.99 prebeta 4 from 23. January 2008
EAC extraction logfile from 8. July 2008, 15:24
Taco / Tell Me That You Like It
Used drive : TSSTcorpCDDVDW SH-S203B Adapter: 6 ID: 0
Read mode : Secure
Utilize accurate stream : Yes
Defeat audio cache : Yes
Make use of C2 pointers : No
Read offset correction : 6
Overread into Lead-In and Lead-Out : No
Fill up missing offset samples with silence : Yes
Delete leading and trailing silent blocks : No
Null samples used in CRC calculations : Yes
Used interface : Installed external ASPI interface
Used output format : User Defined Encoder
Selected bitrate : 1024 kBit/s
Quality : High
Add ID3 tag : No
Command line compressor : C:\Program Files\FLAC\flac.exe
Additional command line options : -8 -V -T "ARTIST=%a" -T "TITLE=%t" -T "ALBUM=%g" -T "DATE=%y" -T "TRACKNUMBER=%n" -T "GENRE=%m" -T "COMMENT=%e" %s -o %d
TOC of the extracted CD
Track | Start | Length | Start sector | End sector
---------------------------------------------------------
1 | 0:00.33 | 4:36.00 | 33 | 20732
2 | 4:36.33 | 3:49.00 | 20733 | 37907
3 | 8:25.33 | 3:37.00 | 37908 | 54182
4 | 12:02.33 | 4:07.30 | 54183 | 72737
5 | 16:09.63 | 4:09.25 | 72738 | 91437
6 | 20:19.13 | 3:39.07 | 91438 | 107869
7 | 23:58.20 | 3:50.35 | 107870 | 125154
8 | 27:48.55 | 3:16.53 | 125155 | 139907
9 | 31:05.33 | 4:02.42 | 139908 | 158099
10 | 35:08.00 | 5:57.08 | 158100 | 184882
11 | 41:05.08 | 4:54.25 | 184883 | 206957
Range status and errors
Selected range
Filename C:\uTorrent\CD\Taco - Tell Me That You Like It\Taco - Tell Me That You Like It.wav
Peak level 91.2 %
Range quality 99.9 %
Copy CRC FB475BC5
Copy OK
No errors occurred
AccurateRip summary
Track 1 not present in database
Track 2 not present in database
Track 3 not present in database
Track 4 not present in database
Track 5 not present in database
Track 6 not present in database
Track 7 not present in database
Track 8 not present in database
Track 9 not present in database
Track 10 not present in database
Track 11 not present in database
None of the tracks are present in the AccurateRip database
End of status report
--
Яндекс.Метрика
Рейтинг@Mail.ru