(Pop) Ласковый май - 6 CD - 1996-2002, APE (image+.cue), lossless

 

Создавать темы 16-Фев-2015 17:28

-Ласковый май - 6 CD- Жанр: Pop
Страна: Россия
Год выпуска диска: 1996-2002
Аудио кодек: APE
Тип рипа: image+.cue
Битрейт: lossless
Продолжительность: 04:57:13-Легенды #1
Год выпуска диска: 2000
Производитель диска: РФ
Продолжительность: 00:46.30
Трэклист:
01. Шатунов Ю. - Я не хочу
02. Разин А. - Филин
03. Крестовский О. - Озорная девочка
04. Гуров Ю. - Летняя вьюга
05. Прико А. - Я так жду
06. Разин А. - Осень
07. Гуров А. - День рождения
08. Куликов Ю. - Разлука
09. Барабаш Ю. (Петлюра) - Скорый поезд
10. Крестовский О. - Не забывай

Отчёт EAC

Exact Audio Copy V0.99 prebeta 4 from 23. January 2008
Отчёт EAC об извлечении, выполненном 13. февраля 2009, 21:57
Ласковый май / Легенды #1
Дисковод: LITE-ON DVDRW SOHW-1653S   Adapter: 4  ID: 1
Режим чтения                 : Достоверность
Использование точного потока : Да
Отключение кэша аудио        : Да
Использование указателей C2  : Нет
Коррекция смещения при чтении                     : 12
Способность читать области Lead-in и Lead-out     : Нет
Заполнение пропущенных сэмплов тишиной            : Да
Удаление блоков с тишиной в начале и конце        : Нет
При вычислениях CRC использовались нулевые сэмплы : Да
Интерфейс                                         : Установленный внешний ASPI-интерфейс
Выходной формат : Внутренние WAV-операции
Формат сэмплов  : 44.100 Гц; 16 бит; стерео
TOC извлечённого CD
     Трек |   Старт  | Длительность | Начальный сектор | Конечный сектор
    ---------------------------------------------------------------------
       1  |  0:00.00 |    5:19.08   |           0      |      23932
       2  |  5:19.08 |    4:05.54   |       23933      |      42361
       3  |  9:24.62 |    4:40.03   |       42362      |      63364
       4  | 14:04.65 |    5:12.61   |       63365      |      86825
       5  | 19:17.51 |    5:46.51   |       86826      |     112826
       6  | 25:04.27 |    4:50.00   |      112827      |     134576
       7  | 29:54.27 |    3:50.62   |      134577      |     151888
       8  | 33:45.14 |    4:18.39   |      151889      |     171277
       9  | 38:03.53 |    3:56.16   |      171278      |     188993
      10  | 41:59.69 |    4:30.29   |      188994      |     209272
Характеристики диапазона извлечения и сообщения об ошибках
Выбранный диапазон
     Пиковый уровень 96.6 %
     Качество диапазона 99.9 %
     CRC копии 5BDFE90E
     Копирование... OK
Ошибок не произошло
Конец отчёта

Легенды #2

Год выпуска диска: 2000
Производитель диска: РФ
Продолжительность: 00:43.21
Трэклист:
01. Крестовский О. - Подснежник
02. Крестовский О. - Знаю
03. Гуров Ю. - Я прошу тебя
04. Матяш Ю. - Фрегат
05. Разин А. - Атаман
06. Барабаш Ю. (Петлюра) - Я не верю
07. Куликов Ю. - Я мечтаю о тебе
08. Шатунов Ю. - Всё напрасно
09. Разин А. - Дом с трубой

Отчёт EAC

Exact Audio Copy V0.99 prebeta 4 from 23. January 2008
Отчёт EAC об извлечении, выполненном 13. февраля 2009, 23:15
Ласковый май / Легенды #2
Дисковод: LITE-ON DVDRW SOHW-1653S   Adapter: 4  ID: 1
Режим чтения                 : Достоверность
Использование точного потока : Да
Отключение кэша аудио        : Да
Использование указателей C2  : Нет
Коррекция смещения при чтении                     : 12
Способность читать области Lead-in и Lead-out     : Нет
Заполнение пропущенных сэмплов тишиной            : Да
Удаление блоков с тишиной в начале и конце        : Нет
При вычислениях CRC использовались нулевые сэмплы : Да
Интерфейс                                         : Установленный внешний ASPI-интерфейс
Выходной формат : Внутренние WAV-операции
Формат сэмплов  : 44.100 Гц; 16 бит; стерео
TOC извлечённого CD
     Трек |   Старт  | Длительность | Начальный сектор | Конечный сектор
    ---------------------------------------------------------------------
       1  |  0:00.00 |    5:09.22   |           0      |      23196
       2  |  5:09.22 |    6:12.31   |       23197      |      51127
       3  | 11:21.53 |    4:56.33   |       51128      |      73360
       4  | 16:18.11 |    5:36.10   |       73361      |      98570
       5  | 21:54.21 |    4:22.50   |       98571      |     118270
       6  | 26:16.71 |    4:20.22   |      118271      |     137792
       7  | 30:37.18 |    4:38.68   |      137793      |     158710
       8  | 35:16.11 |    5:03.34   |      158711      |     181469
       9  | 40:19.45 |    3:02.21   |      181470      |     195140
Характеристики диапазона извлечения и сообщения об ошибках
Выбранный диапазон
     Имя файла C:\Downloads\Torrents\Ласковый май\Легенды #2\Ласковый май - Легенды #2.wav
     Пиковый уровень 100.0 %
     Качество диапазона 100.0 %
     CRC копии 008DB584
     Копирование... OK
Ошибок не произошло
Конец отчёта

Легенды #3

Год выпуска диска: 2000
Производитель диска: РФ
Продолжительность: 00:45.06
Трэклист:
01. Гуров Ю. - Не грусти
02. Разин А. - Гадкий утенок
03. Барабаш Ю. (Петлюра) - Всё, что было раньше
04. Крестовский О. - Кончилось лето
05. Шатунов Ю. - А я...
06. Гуров А. - Что делать, я не знаю
07. Крестовский О. - А без тебя
08. Разин А. - Маскарад
09. Барабаш Ю. (Петлюра) - Это не любовь
10. Прико А. - Кончено все

Отчёт EAC

Exact Audio Copy V0.99 prebeta 4 from 23. January 2008
Отчёт EAC об извлечении, выполненном 14. февраля 2009, 0:25
Ласковый май / Легенды #3
Дисковод: LITE-ON DVDRW SOHW-1653S   Adapter: 4  ID: 1
Режим чтения                 : Достоверность
Использование точного потока : Да
Отключение кэша аудио        : Да
Использование указателей C2  : Нет
Коррекция смещения при чтении                     : 12
Способность читать области Lead-in и Lead-out     : Нет
Заполнение пропущенных сэмплов тишиной            : Да
Удаление блоков с тишиной в начале и конце        : Нет
При вычислениях CRC использовались нулевые сэмплы : Да
Интерфейс                                         : Установленный внешний ASPI-интерфейс
Выходной формат : Внутренние WAV-операции
Формат сэмплов  : 44.100 Гц; 16 бит; стерео
TOC извлечённого CD
     Трек |   Старт  | Длительность | Начальный сектор | Конечный сектор
    ---------------------------------------------------------------------
       1  |  0:00.00 |    4:42.37   |           0      |      21186
       2  |  4:42.37 |    4:26.35   |       21187      |      41171
       3  |  9:08.72 |    3:45.60   |       41172      |      58106
       4  | 12:54.57 |    5:07.65   |       58107      |      81196
       5  | 18:02.47 |    4:47.00   |       81197      |     102721
       6  | 22:49.47 |    4:48.74   |      102722      |     124395
       7  | 27:38.46 |    4:28.27   |      124396      |     144522
       8  | 32:06.73 |    3:21.67   |      144523      |     159664
       9  | 35:28.65 |    3:02.28   |      159665      |     173342
      10  | 38:31.18 |    6:34.66   |      173343      |     202958
Характеристики диапазона извлечения и сообщения об ошибках
Выбранный диапазон
     Пиковый уровень 99.9 %
     Качество диапазона 100.0 %
     CRC копии 07083C97
     Копирование... OK
Ошибок не произошло
Конец отчёта

Ты это еще не слышал!

Год выпуска диска: 2000
Производитель диска: РФ
Продолжительность: 00:35.30
Трэклист:
01. А ночь темна
02. А помнишь…
03. Вокзал
04. Если хочешь (Просто мечты)
05. Июльский дождь
06. Отзвенело лето
07. Последний снег
08. Слёзы твои
09. Случайная встреча В 1999 году в Иркутске на студии Бориса Рожанского Юрий Шатунов записывает несколько совершенно новых песен. Эти произведения выходят в Германии на диске, озаглавленном «Ласковый май 2000. Ты это ещё не слышал!», позже песни появляются и в России. По признанию самого Шатунова, этот музыкальный материал был похищен у него в то время, когда он подбирал себе новых аранжировщиков для работы в команде. Также в «пиратский» альбом вошло несколько ремиксов на «ласковомайские» хиты.

Отчёт EAC

Exact Audio Copy V0.99 prebeta 4 from 23. January 2008
Отчёт EAC об извлечении, выполненном 27. мая 2009, 22:18
Ласковый май (Шатунов Ю.) / Ты это еще не слышал!
Дисковод: LITE-ON DVDRW SOHW-1653S   Adapter: 4  ID: 1
Режим чтения                 : Достоверность
Использование точного потока : Да
Отключение кэша аудио        : Да
Использование указателей C2  : Нет
Коррекция смещения при чтении                     : 12
Способность читать области Lead-in и Lead-out     : Нет
Заполнение пропущенных сэмплов тишиной            : Да
Удаление блоков с тишиной в начале и конце        : Нет
При вычислениях CRC использовались нулевые сэмплы : Да
Интерфейс                                         : Установленный внешний ASPI-интерфейс
Выходной формат : Внутренние WAV-операции
Формат сэмплов  : 44.100 Гц; 16 бит; стерео
TOC извлечённого CD
     Трек |   Старт  | Длительность | Начальный сектор | Конечный сектор
    ---------------------------------------------------------------------
       1  |  0:00.00 |    3:37.23   |           0      |      16297
       2  |  3:37.23 |    5:19.70   |       16298      |      40292
       3  |  8:57.18 |    4:00.30   |       40293      |      58322
       4  | 12:57.48 |    3:56.41   |       58323      |      76063
       5  | 16:54.14 |    3:51.18   |       76064      |      93406
       6  | 20:45.32 |    2:53.42   |       93407      |     106423
       7  | 23:38.74 |    3:54.63   |      106424      |     124036
       8  | 27:33.62 |    3:49.27   |      124037      |     141238
       9  | 31:23.14 |    4:06.33   |      141239      |     159721
Характеристики диапазона извлечения и сообщения об ошибках
Выбранный диапазон
     Пиковый уровень 100.0 %
     Качество диапазона 100.0 %
     CRC копии 00458FD5
     Копирование... OK
Ошибок не произошло
Конец отчёта

NEW-2002

Год выпуска диска: 2002
Производитель диска: РФ
Продолжительность: 00:53.22
Трэклист:
01. Белые розы
02. Седая ночь
03. Ну что же ты
04. Пес
05. Кончено все
06. Дождь
07. Ты просто был
08. Осень
09. Я откровенен лишь с луной
10. Розовый вечер
11. На белом покрывале января
12. Белые розы (Remix) Кавер-версии известных песен «Ласкового мая» в исполнении «Анюты, Жени и Ильи». Проект под названием «Ласковый май - новое поколение» спродюссировал Владимир Шурочкин, в конце 1980-х написавший и исполнивший некоторое количество песен для ЛМ. Выход данного альбома спровоцировал гневную реакцию со стороны А. Разина, обвинившего Вл. Шурочкина в пиратстве. Надо признать, что основания для проявления столь бурных эмоций у основателя студии «Ласковый май» имелись. Впрочем, задиристая аннотация на вкладыше к компакт-диску, возможно, уже изначально задумывалась под скандальную раскрутку проекта: «Прошло более десяти лет с момента, когда сотни тысяч молодых людей распрощались с деятельностью своего кумира, имевшего всенародную популярность и сложную и спорную репутацию… Эта пластинка - дань уважения именно поклонникам „Ласкового мая“, которые были лишены своего кумира в силу профессиональной некомпетенции и личностных амбиций некоторых руководителей проекта...»

Отчёт EAC

Exact Audio Copy V0.99 prebeta 4 from 23. January 2008
Отчёт EAC об извлечении, выполненном 27. мая 2009, 6:06
Ласковый май / NEW-2002
Дисковод: LITE-ON DVDRW SOHW-1653S   Adapter: 4  ID: 1
Режим чтения                 : Достоверность
Использование точного потока : Да
Отключение кэша аудио        : Да
Использование указателей C2  : Нет
Коррекция смещения при чтении                     : 12
Способность читать области Lead-in и Lead-out     : Нет
Заполнение пропущенных сэмплов тишиной            : Да
Удаление блоков с тишиной в начале и конце        : Нет
При вычислениях CRC использовались нулевые сэмплы : Да
Интерфейс                                         : Установленный внешний ASPI-интерфейс
Выходной формат : Внутренние WAV-операции
Формат сэмплов  : 44.100 Гц; 16 бит; стерео
TOC извлечённого CD
     Трек |   Старт  | Длительность | Начальный сектор | Конечный сектор
    ---------------------------------------------------------------------
       1  |  0:00.00 |    4:35.19   |           0      |      20643
       2  |  4:35.19 |    4:14.26   |       20644      |      39719
       3  |  8:49.45 |    4:33.04   |       39720      |      60198
       4  | 13:22.49 |    4:49.41   |       60199      |      81914
       5  | 18:12.15 |    4:14.24   |       81915      |     100988
       6  | 22:26.39 |    4:11.61   |      100989      |     119874
       7  | 26:38.25 |    4:22.67   |      119875      |     139591
       8  | 31:01.17 |    4:12.73   |      139592      |     158564
       9  | 35:14.15 |    4:19.33   |      158565      |     178022
      10  | 39:33.48 |    3:51.31   |      178023      |     195378
      11  | 43:25.04 |    4:37.16   |      195379      |     216169
      12  | 48:02.20 |    5:19.71   |      216170      |     240165
Характеристики диапазона извлечения и сообщения об ошибках
Выбранный диапазон
     Пиковый уровень 98.8 %
     Качество диапазона 100.0 %
     CRC копии 3204E621
     Копирование... OK
Ошибок не произошло
Конец отчёта

Лучшее

Год выпуска диска: 1996
Производитель диска: РФ
Продолжительность: 01:13.21
Трэклист:
01. Интро (Разин А.)
02. Шатунов Ю. - Белые розы
03. Орлов Ю. (Петлюра) - Младшая сестренка
04. Шатунов Ю. - Рано ушедшая осень
05. Разин А. - Фатима
06. Орлов Ю. (Петлюра) - Случайная встреча
07. Шатунов Ю. - Детство
08. Шатунов Ю. - Девочка моей мечты
09. Разин А. - Кот
10. Разин А. - Бабушка
11. Разин А. - Автомобиль
12. Разин А. - Старый лес
13. Разин А. - Дядя Миша
14. Разин А. - На белом покрывале января
15. Разин А. - Калейдоскоп
16. Шурочкин В. - Ласковый май

Отчёт EAC

Exact Audio Copy V0.99 prebeta 4 from 23. January 2008
Отчёт EAC об извлечении, выполненном 8. мая 2009, 23:48
Ласковый Май / Лучшее
Дисковод: LITE-ON DVDRW SOHW-1653S   Adapter: 4  ID: 1
Режим чтения                 : Достоверность
Использование точного потока : Да
Отключение кэша аудио        : Да
Использование указателей C2  : Нет
Коррекция смещения при чтении                     : 12
Способность читать области Lead-in и Lead-out     : Нет
Заполнение пропущенных сэмплов тишиной            : Да
Удаление блоков с тишиной в начале и конце        : Нет
При вычислениях CRC использовались нулевые сэмплы : Да
Интерфейс                                         : Установленный внешний ASPI-интерфейс
Выходной формат : Внутренние WAV-операции
Формат сэмплов  : 44.100 Гц; 16 бит; стерео
TOC извлечённого CD
     Трек |   Старт  | Длительность | Начальный сектор | Конечный сектор
    ---------------------------------------------------------------------
       1  |  0:01.00 |    1:12.26   |          75      |       5500
       2  |  1:13.26 |    5:45.30   |        5501      |      31405
       3  |  6:58.56 |    4:02.32   |       31406      |      49587
       4  | 11:01.13 |    4:14.02   |       49588      |      68639
       5  | 15:15.15 |    4:09.64   |       68640      |      87378
       6  | 19:25.04 |    3:55.66   |       87379      |     105069
       7  | 23:20.70 |    4:15.04   |      105070      |     124198
       8  | 27:35.74 |    5:15.31   |      124199      |     147854
       9  | 32:51.30 |    5:26.07   |      147855      |     172311
      10  | 38:17.37 |    5:01.01   |      172312      |     194887
      11  | 43:18.38 |    4:43.49   |      194888      |     216161
      12  | 48:02.12 |    5:56.69   |      216162      |     242930
      13  | 53:59.06 |    4:41.59   |      242931      |     264064
      14  | 58:40.65 |    4:41.36   |      264065      |     285175
      15  | 63:22.26 |    4:37.65   |      285176      |     306015
      16  | 68:00.16 |    5:23.06   |      306016      |     330246
Характеристики диапазона извлечения и сообщения об ошибках
Выбранный диапазон
     Пиковый уровень 98.3 %
     Качество диапазона 99.9 %
     CRC копии 1C40DEE0
     Копирование... OK
Ошибок не произошло
Конец отчёта
-
Яндекс.Метрика
Рейтинг@Mail.ru