[ Сегодня на трекере фрилич! Идет свободное скачивание без начисления Download ]

(Classic Rock,Hard Rock) Deep Purple - Come Hell Or High Water (Remaster 2013) - 1994 [FLAC, image+.cue, lossless]

 

Создавать темы 15-Фев-2015 21:56

-Deep Purple / Come Hell Or High Water (Remaster 2013)-- Год издания: 1994
Страна: UK
Жанр: Classic Rock,Hard Rock
Продолжительность: 01:16:53-Лейбл издания: Sony Music
Тип альбома: Live
Страна-выпуска диска: Japan
Номер по каталогу: SICP 30387
Формат: FLAC
Битрейт аудио: lossless
Тип рипа: image+.cue
Наличие сканов в содержимом раздачи: да

треклист

01. Highway Star (06:43)
02. Black Night (05:49)
03. Twist In The Tale (04:24)
04. Perfect Strangers (06:53)
05. Anyone's Daughter (03:53)
06. Child In Time (10:43)
07. Anya (12:07)
08. Lazy (04:18)
09. Space Truckin' (02:26)
10. Woman From Tokyo (01:57)
11. Speed King (07:34)
12. Smoke On The Water (10:10)
-

Лог создания рипа

Exact Audio Copy V1.0 beta 3 from 29. August 2011
EAC extraction logfile from 19. January 2014, 13:16
Deep Purple / Come Hell Or High Water BSCD2
Used drive  : PLEXTOR BD-R  PX-B950SA   Adapter: 6  ID: 0
Read mode               : Secure
Utilize accurate stream : Yes
Defeat audio cache      : Yes
Make use of C2 pointers : No
Read offset correction                      : 6
Overread into Lead-In and Lead-Out          : No
Fill up missing offset samples with silence : Yes
Delete leading and trailing silent blocks   : No
Null samples used in CRC calculations       : Yes
Used interface                              : Native Win32 interface for Win NT & 2000
Used output format : Internal WAV Routines
Sample format      : 44.100 Hz; 16 Bit; Stereo
TOC of the extracted CD
Track |   Start  |  Length  | Start sector | End sector
---------------------------------------------------------
1  |  0:00.00 |  6:42.68 |         0    |    30217
2  |  6:42.68 |  5:48.28 |     30218    |    56345
3  | 12:31.21 |  4:23.56 |     56346    |    76126
4  | 16:55.02 |  6:52.03 |     76127    |   107029
5  | 23:47.05 |  3:52.56 |    107030    |   124485
6  | 27:39.61 | 10:42.60 |    124486    |   172695
7  | 38:22.46 | 12:06.03 |    172696    |   227148
8  | 50:28.49 |  4:17.74 |    227149    |   246497
9  | 54:46.48 |  2:25.69 |    246498    |   257441
10  | 57:12.42 |  1:56.47 |    257442    |   266188
11  | 59:09.14 |  7:33.16 |    266189    |   300179
12  | 66:42.30 | 10:09.71 |    300180    |   345925
Range status and errors
Selected range
Filename C:\Users\Meijin\Desktop\Lossless Galaxy ALLexxess\Deep Purple\1994 Come Hell Or High Water (BSCD2 Sony Music Japan 2013)\Deep Purple - Come Hell Or High Water BSCD2.wav
Peak level 100.0 %
Extraction speed 8.8 X
Range quality 100.0 %
Test CRC FFBB8BF7
Copy CRC FFBB8BF7
Copy OK
No errors occurred
AccurateRip summary
Track  1  accurately ripped (confidence 2)  [508C401B]  (AR v1)
Track  2  accurately ripped (confidence 2)  [7DFA7C6F]  (AR v1)
Track  3  accurately ripped (confidence 2)  [E31C0864]  (AR v1)
Track  4  accurately ripped (confidence 2)  [A9BF9A77]  (AR v1)
Track  5  accurately ripped (confidence 2)  [F3037072]  (AR v1)
Track  6  accurately ripped (confidence 2)  [96F2847E]  (AR v1)
Track  7  accurately ripped (confidence 2)  [7E1CF700]  (AR v1)
Track  8  accurately ripped (confidence 2)  [350743BB]  (AR v1)
Track  9  accurately ripped (confidence 2)  [A2192406]  (AR v1)
Track 10  accurately ripped (confidence 2)  [8975111D]  (AR v1)
Track 11  accurately ripped (confidence 2)  [DD6EDFE0]  (AR v1)
Track 12  accurately ripped (confidence 2)  [8EF56984]  (AR v1)
All tracks accurately ripped
End of status report

Индексная карта (non-compilant .cue)

REM GENRE "Hard Rock"
REM DATE 1994
REM DISCID 8812040C
REM COMMENT "ExactAudioCopy v1.0b3"
PERFORMER "Deep Purple"
TITLE "Come Hell Or High Water BSCD2"
FILE "Deep Purple - Come Hell Or High Water BSCD2.flac" WAVE
TRACK 01 AUDIO
TITLE "Highway Star"
PERFORMER "Deep Purple"
INDEX 01 00:00:00
TRACK 02 AUDIO
TITLE "Black Night"
PERFORMER "Deep Purple"
INDEX 01 06:42:68
TRACK 03 AUDIO
TITLE "Twist In The Tale"
PERFORMER "Deep Purple"
INDEX 01 12:31:21
TRACK 04 AUDIO
TITLE "Perfect Strangers"
PERFORMER "Deep Purple"
INDEX 01 16:55:02
TRACK 05 AUDIO
TITLE "Anyone's Daughter"
PERFORMER "Deep Purple"
INDEX 01 23:47:05
TRACK 06 AUDIO
TITLE "Child In Time"
PERFORMER "Deep Purple"
INDEX 01 27:39:61
TRACK 07 AUDIO
TITLE "Anya"
PERFORMER "Deep Purple"
INDEX 01 38:22:46
TRACK 08 AUDIO
TITLE "Lazy"
PERFORMER "Deep Purple"
INDEX 01 50:28:49
TRACK 09 AUDIO
TITLE "Space Truckin'"
PERFORMER "Deep Purple"
INDEX 01 54:46:48
TRACK 10 AUDIO
TITLE "Woman From Tokyo"
PERFORMER "Deep Purple"
INDEX 01 57:12:42
TRACK 11 AUDIO
TITLE "Speed King"
PERFORMER "Deep Purple"
INDEX 01 59:09:14
TRACK 12 AUDIO
TITLE "Smoke On The Water"
PERFORMER "Deep Purple"
INDEX 01 66:42:30

Лог Audiochecker

AUDIOCHECKER v2.0 beta (build 457) - by Dester - [email protected]
~~~~~~~~~~~~~~~~~~~~~~~~~~~~~~~~~~
Started at: воскресенье, 15. 02. 2015. - 20:21.54
1 file found
1 -===- D:\Torrent files\Deep Purple - 1994 - Come Hell Or High Water (BSCD2 Sony Music Japan 2013)\Deep Purple - Come Hell Or High Water BSCD2.flac
Extracted successfully
Conclusion: this track is CDDA with probability 100%
Tempfile successfully deleted.

Скриншот спектра частот

Об альбоме (сборнике)

Come Hell or High Water — концертный альбом группы Deep Purple, вышедший в 1994 году.
Come Hell or High Water представляет собой компиляцию из треков, записанных в ходе тура «The Battle Rages On» в 1993 году. Были использованы записи, сделанные на двух концертах: в Штутгарте 16 октября 1993 и в Бирмингеме 9 ноября.
Существует и видео «Come Hell Or High Water», вышедшее в 1994 году с той же обложкой, что и компакт-диск. Однако видео включает в себя неполную запись концерта в Бирмингеме (вырезаны большинство пауз между песнями, вырезана предпоследняя песня Hush) и, соответственно, имеет другой набор и порядок треков. Нужно отметить, что на альбоме подавляющее число номеров записано в Штутгарте.

Состав

Джон Лорд — клавишные
Ричи Блэкмор — гитара
Ян Пейс — ударные
Роджер Гловер — бас-гитара
Иэн Гиллан — вокал
--Не забываем говорить
Яндекс.Метрика
Рейтинг@Mail.ru