Смешарики: ПИН-код 2. Прыжок в будущее / Сезон 2 / Серии: 4 из ?? (Алексей Горбунов, ...) [2012 г., приключения, мультфильм, детский, HDTVRip]

 

Создавать темы 09-Фев-2015 06:40

-Смешарики: ПИН-код 2.
Прыжок в будущее
--
Производство: Россия, Студия компьютерной анимации "Петербург"
Жанр: приключения, мультфильм, детский
Год выпуска: 2012 г.
Перевод: Не требуется
Релиз на DVD: 20 августа 2012, «Новый Диск», ...
Режиссер: Алексей Горбунов, Светлана Мардаголимова, Александра Аверьянова, ...
Персонажи: Пин, Лосяш, Крош, Ёжик, Бараш, Нюша, Копатыч, Карыч, Совунья-Роли озвучивали:
Ксения Бржезовская, Антон Виноградов, Сергей Мардарь, Светлана Письмиченко, Михаил Черняк, Андрей Лёвин-Описание:
Мультсериал «ПИН-код» представляет собой анимационное путешествие в мир нано-, био-, информационных технологий. Это проект, целью которого является формирование интереса к изобретательству, техническому творчеству и науке у детей от 4 до 14 лет. Сериал ориентирует зрителей на новую идеология изобретательства «Создай и внедри», на умение защитить свой интеллектуальный труд на уровне патента и довести его до людей на уровне новых товаров. Это - приглашение в сообщество детей-изобретателей. Будущие изобретатели должны понимать и решать реальные проблемы окружающих людей. Смешарики подготовят юных Кулибиных и к разработке своего изобретения, и к его повсеместному внедрению.-Дополнительная информация:
Благодарности адресуются Prof1 с Форума фан-клуба "Мир Смешариков" за запись исходного материала и любезно предоставленную возможность его использования-Сезон: 2
Серии: 4 из ?? серий
Продолжительность: ~ 00:13:00 мин серия-
Качество видео: HDTVRip
Контейнер: AVI
Видео кодек: XviD
Аудио кодек: MP3
Видео: MPEG-4 Visual at 2000 Кбит/сек: 704 x 400 (1.760) at 25.000 fps, 0.28 Бит/Пиксели
Аудио: MPEG Audio at 128 Кбит/сек: 2 канала, 48,0 КГц
Cубтитры: отсутствуют

Media Info

Общее
Полное имя : E:\_Сериалы\МультСериалы\Смешарики\Смешарики. Пин-Код 2 (HDTVRip)\01 Баранка.avi
Формат : AVI
Формат/Информация : Audio Video Interleave
Размер файла : 199 Мбайт
Продолжительность : 13 м.
Общий поток : 2138 Кбит/сек
Программа кодирования : VirtualDubMod 1.5.10.3 | www.virtualdub-fr.org || (build 2550/release)
Библиотека кодирования : VirtualDubMod build 2550/release
Видео
Идентификатор : 0
Формат : MPEG-4 Visual
Профиль формата : Advanced [email protected]
Параметр BVOP формата : 2
Параметр QPel формата : Нет
Параметр GMC формата : Без точки перехода
Параметр матрицы формата : Default (H.263)
Режим смешивания : Сжатый битовый поток
Идентификатор кодека : XVID
Идентификатор кодека/Подсказка : XviD
Продолжительность : 13 м.
Битрейт : 2000 Кбит/сек
Ширина : 704 пикселя
Высота : 400 пикселей
Соотношение сторон : 16:9
Частота кадров : 25,000 кадров/сек
Цветовое пространство : YUV
Субдискретизация насыщенности : 4:2:0
Битовая глубина : 8 бит
Тип развёртки : Прогрессивная
Метод сжатия : С потерями
Бит/(Пиксели*Кадры) : 0.284
Размер потока : 186 Мбайт (94%)
Библиотека кодирования : XviD 63
Аудио
Идентификатор : 1
Формат : MPEG Audio
Версия формата : Version 1
Профиль формата : Layer 3
Режим : Joint stereo
Расширение режима : MS Stereo
Идентификатор кодека : 55
Идентификатор кодека/Подсказка : MP3
Продолжительность : 12 м.
Вид битрейта : Постоянный
Битрейт : 128 Кбит/сек
Каналы : 2 канала
Частота : 48,0 КГц
Метод сжатия : С потерями
Размер потока : 11,9 Мбайт (6%)
Выравнивание : Соединение по промежуткам
Продолжительность промежутка : 40 мс. (1,00 видеокадр)
Время предзагрузки промежутка : 504 мс.
Библиотека кодирования : LAME3.98r
Настройки программы : -m j -V 4 -q 2 -lowpass 17 -b 128
-

Скриншот c названием мультфильма

-

Скриншоты

-
-

Список серий:

  • Баранка
  • Двигатель прогресса
  • Лучший из миров
  • Космические жмурки
-

Последнее обновление 08.02.2015:

Добавлена новая серия
04 Космические жмурки (первый эфир 08.02.2015)
-

Внимание! Раздача ведётся путём добавления новых серий!

Раздача ведётся путём добавления новых серий; при каждом добавлении создаётся новый торрент.
Чтобы начать докачку новой серии, пользователям необходимо сделать следующее:
1. остановить скачивание,
2. удалить старый торрент у себя из клиента (старые серии удалять не надо),
3. скачать новый торрент и запустить его у себя в клиенте вместо старого, при этом указать клиенту путь в старую папку, куда и должно происходить скачивание новых серий.
Ваш клиент при этом должен произвести хеширование (проверку) старой папки (если не производит сам - помогите ему сделать это), и будет докачивать только те серии которых у вас ещё нет. Старые серии при этом не удаляются, а продолжают раздаваться!
Eсли вы уже удалили старые серии, то предотвратить повторную закачку старых серий можно, отжав галочку в соответствующих местах при запуске нового торрента. По возможности, желательно не удалять старые серии как можно дольше, чтобы релизёр не столько продолжал раздавать старые серии, а смог сконцентрироваться на новых.
Совет для тех, кто не хочет ждать перехеширования:
Создайте ещё одну папку рядом с папкой сериала (рядом, а не в ней!!!). Каждую новую серию после удачной загрузки копируйте в новую папку так чтобы ваша основная папка всегда была пуста. Когда ваш новый торрент предложит вам закачать все файлы, выберете только последнюю. Для сидирования же укажите адрес новой папки.
Как закачать отдельный файл из торрента или докачать ранее пропущенные файлы торрента!
-

Как закачать отдельный файл

1. Открыть торрент
2. Снять галки с тех файлов торрента, которые мы не хотим закачивать. Оставляем только на нужных нам файлах (файле).
3. Нажать О.К.
В клиенте utorrent
Инструкция
1) Открыть торрент

2) Снять галки с тех файлов торрента, которые мы не хотим закачивать:
* либо вручную, снимая с каждого файла галку( скрин №1)
* либо, нажав кнопку "Снять метки (Select None)", сняв сразу со всех файлов(скрин №2)
№1

№2

Оставляем только на нужных нам файлах (файле).

3)Нажать О.К
-Добавлена четвертая серия второго сезонаРаботаю за
Яндекс.Метрика
Рейтинг@Mail.ru