[ Сегодня на трекере фрилич! Идет свободное скачивание без начисления Download ]

(Pop) [CD] Дмитрий Маликов - Cafe Safari - 2015, FLAC (image+.cue), lossless

 

Создавать темы 08-Фев-2015 19:22

-Дмитрий Маликов - Cafe Safari- Жанр: Pop
Носитель: CD
Страна-производитель диска (релиза): Россия
Год издания: 2015
Издатель (лейбл): Dmitriy Malikov
Страна исполнителя (группы): Россия
Аудиокодек: FLAC (*.flac)
Тип рипа: image+.cue
Битрейт аудио: lossless
Продолжительность: 00:54:22
Источник (релизер): Blind40k
Наличие сканов в содержимом раздачи: нет-Треклист:
01. Улыбка ангела
02. Линия горизонта
03. Медные небеса
04. Кафе "Сафари"
05. Китайский красный
06. Робин Гуд
07. От самого сердца
08. Золотые пески
09. Эфемера
10. Мана Нокана
11. Крестовый поход
12. Рыцарь навсегда
Лог создания рипа

Отчёт EAC

Exact Audio Copy V1.0 beta 4 from 7. December 2014
Отчёт EAC об извлечении, выполненном 7. февраля 2015, 14:03
Дмитрий Маликов / Cafe "Safari"
Дисковод: Optiarc DVD RW AD-7203S   Adapter: 1  ID: 1
Режим чтения                 : Достоверность
Использование точного потока : Да
Отключение кэша аудио        : Да
Использование указателей C2  : Нет
Коррекция смещения при чтении                     : 48
Способность читать области Lead-in и Lead-out     : Нет
Заполнение пропущенных сэмплов тишиной            : Да
Удаление блоков с тишиной в начале и конце        : Нет
При вычислениях CRC использовались нулевые сэмплы : Да
Интерфейс                                         : Встроенный Win32-интерфейс для Win NT/2000
Выходной формат          : Пользовательский кодировщик
Выбранный битрейт        : 768 kBit/s
Качество                 : Высокий
Добавление ID3-тега      : Нет
Утилита сжатия           : C:\Program Files (x86)\Exact Audio Copy\FLAC\FLAC.EXE
Дополнительные параметры : -V -8 -T "Genre=%genre%" -T "Artist=%artist%" -T "Title=%title%" -T "Album=%albumtitle%" -T "Date=%year%" -T "Tracknumber=%tracknr%" -T "Comment=%comment%" %source%
TOC извлечённого CD
     Трек |   Старт  | Длительность | Начальный сектор | Конечный сектор
    ---------------------------------------------------------------------
       1  |  0:00.00 |    5:11.62   |           0      |      23386
       2  |  5:11.62 |    4:13.03   |       23387      |      42364
       3  |  9:24.65 |    4:47.24   |       42365      |      63913
       4  | 14:12.14 |    4:47.08   |       63914      |      85446
       5  | 18:59.22 |    4:12.37   |       85447      |     104383
       6  | 23:11.59 |    3:07.60   |      104384      |     118468
       7  | 26:19.44 |    4:32.58   |      118469      |     138926
       8  | 30:52.27 |    4:01.20   |      138927      |     157021
       9  | 34:53.47 |    4:34.38   |      157022      |     177609
      10  | 39:28.10 |    5:01.13   |      177610      |     200197
      11  | 44:29.23 |    4:27.69   |      200198      |     220291
      12  | 48:57.17 |    5:24.71   |      220292      |     244662
Характеристики диапазона извлечения и сообщения об ошибках
Выбранный диапазон
     Имя файла E:\_Work\Malikov\Дмитрий Маликов - Cafe ''Safari''.wav
     Пиковый уровень 100.0 %
     Скорость извлечения 4.0 X
     Качество диапазона 100.0 %
     CRC теста F9D0D570
     CRC копии F9D0D570
     Копирование... OK
Ошибок не произошло
Конец отчёта
-
Яндекс.Метрика
Рейтинг@Mail.ru