Снова В Школу / Назад В Школу / Back To School (Алан Меттер /Alan Metter) [1986 г., Комедия, BDRip-AVC] AVO (Михалев, Санаев)

 

Создавать темы 02-Фев-2015 05:10

Снова В Школу / Назад В Школу / Back To School
«Registration starts Friday, June 13, at theaters everywhere»
- Год выпуска: 1986
Страна: США
Жанр: Комедия
Продолжительность: 01:36:36
Перевод: 1-я дорожка - Авторский (одноголосый) Алексей Михалев; 2-я дорожка - Авторский (одноголосый) Павел Санаев
Русские субтитры: нет
Режиссер: Алан Меттер / Alan Metter
В ролях: Родни Дэнжерфилд / Rodney Dangerfield, Сэлли Келлермэн / Sally Kellerman, Берт Янг / Burt Young, Кит Гордон / Keith Gordon, Роберт Дауни-младший / Robert Downey, Jr., Пэкстон Уайтхед / Paxton Whitehead, М. Эммет Уолш / M. Emmet Walsh, Терри Фэррелл / Terry Farrell, Уильям Забка / William Zabka, Эдриэнн Барбо / Adrienne Barbeau
Описание: Секрет большого успеха фильма у американского зрителя скорее можно объяснить не сюжетными коллизиями, а привлекательностью главного героя, в котором легко узнаются многие черты национального характера американца (упорство в достижении цели, жизнерадостность, юмор). А сюжет этой веселой комедии таков: недоучившийся когда-то в молодости миллионер (Дэнжерфилд) садится на одну студенческую скамью с сыном (Гордон), чтобы вернуть тому веру в свои силы. (Иванов М.)
,
Качество видео: BDRip-AVC
Контейнер: MKV
Видео кодек: MPEG4-AVC / H.264
Видео: 1024x552 / 2576 kbps / 23,976 fps / 1,85:1 / High Profile 4.1
Аудио#1: 48 kHz, AC3 Dolby Digital, 2/0 (L,R) ch, ~192.00 kbps avg - Михалев
Аудио#3: 48 kHz, AC3 Dolby Digital, 3/2 (L,C,R,l,r) + LFE ch, ~448.00 kbps avg - Санаев

Media Info

Формат : Matroska
Версия формата : Version 4 / Version 2
Размер файла : 2,17 Гбайт
Продолжительность : 1 ч. 36 м.
Общий поток : 3218 Кбит/сек
Название фильма : Back To School.1986.BDRip-AVC.Mihalev.Sanaev -=anton966=-
Дата кодирования : UTC 2015-02-01 21:49:51
Программа кодирования : mkvmerge v7.5.0 ('Glass Culture') 64bit built on Jan 4 2015 16:48:44
Библиотека кодирования : libebml v1.3.1 + libmatroska v1.4.2
DURATION : 00:00:14.515000000
NUMBER_OF_FRAMES : 6
NUMBER_OF_BYTES : 18796
_STATISTICS_WRITING_APP : mkvmerge v7.5.0 ('Glass Culture') 64bit built on Jan 4 2015 16:48:44
_STATISTICS_WRITING_DATE_UTC : 2015-02-01 21:49:51
_STATISTICS_TAGS : BPS DURATION NUMBER_OF_FRAMES NUMBER_OF_BYTES
Видео
Идентификатор : 1
Формат : AVC
Формат/Информация : Advanced Video Codec
Профиль формата : [email protected]
Параметр CABAC формата : Да
Параметр ReFrames формата : 8 кадров
Идентификатор кодека : V_MPEG4/ISO/AVC
Продолжительность : 1 ч. 36 м.
Битрейт : 2514 Кбит/сек
Ширина : 1024 пикселя
Высота : 552 пикселя
Соотношение сторон : 1,85:1
Режим частоты кадров : Постоянный
Частота кадров : 23,976 кадра/сек
Цветовое пространство : YUV
Субдискретизация насыщенности : 4:2:0
Битовая глубина : 8 бит
Тип развёртки : Прогрессивная
Бит/(Пиксели*Кадры) : 0.185
Размер потока : 1,70 Гбайт (78%)
Заголовок : Back To School.1986.BDRip-AVC (1024x552)
Библиотека кодирования : x264 core 144 r2525 40bb568
Настройки программы : cabac=1 / ref=8 / deblock=1:-1:-1 / analyse=0x3:0x113 / me=umh / subme=11 / psy=1 / psy_rd=1.05:0.15 / mixed_ref=1 / me_range=32 / chroma_me=1 / trellis=2 / 8x8dct=1 / cqm=0 / deadzone=21,11 / fast_pskip=1 / chroma_qp_offset=-3 / threads=12 / lookahead_threads=2 / sliced_threads=0 / nr=0 / decimate=1 / interlaced=0 / bluray_compat=0 / constrained_intra=0 / bframes=9 / b_pyramid=2 / b_adapt=2 / b_bias=0 / direct=1 / weightb=1 / open_gop=0 / weightp=2 / keyint=250 / keyint_min=23 / scenecut=40 / intra_refresh=0 / rc=crf / mbtree=0 / crf=19.1 / qcomp=0.60 / qpmin=0 / qpmax=69 / qpstep=4 / ip_ratio=1.40 / pb_ratio=1.30 / aq=1:1.00
Язык : English
Default : Да
Forced : Нет
DURATION : 01:36:36.881000000
NUMBER_OF_FRAMES : 138986
NUMBER_OF_BYTES : 1866566965
_STATISTICS_WRITING_APP : mkvmerge v7.5.0 ('Glass Culture') 64bit built on Jan 4 2015 16:48:44
_STATISTICS_WRITING_DATE_UTC : 2015-02-01 21:49:51
_STATISTICS_TAGS : BPS DURATION NUMBER_OF_FRAMES NUMBER_OF_BYTES
Аудио #1
Идентификатор : 2
Формат : AC-3
Формат/Информация : Audio Coding 3
Расширение режима : CM (complete main)
Параметр Endianness формата : Big
Идентификатор кодека : A_AC3
Продолжительность : 1 ч. 36 м.
Вид битрейта : Постоянный
Битрейт : 192 Кбит/сек
Каналы : 2 канала
Расположение каналов : Front: L R
Частота : 48,0 КГц
Битовая глубина : 16 бит
Метод сжатия : С потерями
Размер потока : 133 Мбайт (6%)
Заголовок : Mihalev DD AC3 2.0 @ 192 kbps
Язык : Russian
Default : Да
Forced : Нет
Аудио #2
Идентификатор : 3
Формат : AC-3
Формат/Информация : Audio Coding 3
Расширение режима : CM (complete main)
Параметр Endianness формата : Big
Идентификатор кодека : A_AC3
Продолжительность : 1 ч. 36 м.
Вид битрейта : Постоянный
Битрейт : 448 Кбит/сек
Каналы : 6 каналов
Расположение каналов : Front: L C R, Side: L R, LFE
Частота : 48,0 КГц
Битовая глубина : 16 бит
Метод сжатия : С потерями
Размер потока : 310 Мбайт (14%)
Заголовок : Sanaev DD AC3 5.1 @ 448 kbps
Язык : Russian
Default : Нет
Forced : Нет
Текст
Идентификатор : 4
Формат : PGS
Режим смешивания : zlib
Идентификатор кодека : S_HDMV/PGS
Идентификатор кодека/Информация : The same subtitle format used on BDs/HD-DVDs
Заголовок : forced
Язык : Russian
Default : Да
Forced : Нет
Меню
00:00:00.000 : en:
00:02:15.383 : en:
00:04:20.134 : en:
00:07:53.180 : en:
00:09:06.167 : en:
00:13:43.239 : en:
00:15:55.913 : en:
00:16:49.340 : en:
00:19:35.132 : en:
00:22:50.451 : en:
00:27:04.496 : en:
00:28:05.721 : en:
00:31:10.159 : en:
00:34:16.012 : en:
00:36:23.639 : en:
00:38:18.170 : en:
00:41:31.822 : en:
00:43:00.536 : en:
00:48:14.056 : en:
00:54:44.030 : en:
00:56:18.458 : en:
00:58:05.440 : en:
01:00:54.025 : en:
01:04:16.351 : en:
01:11:38.792 : en:
01:14:17.411 : en:
01:16:05.600 : en:
01:17:31.563 : en:
01:19:38.439 : en:
01:21:07.028 : en:
01:24:12.337 : en:
01:32:19.867 : en:

x264 log

avs [info]: 1024x552p 1:1 @ 2997/125 fps (cfr)
x264 [info]: using SAR=1/1
x264 [info]: using cpu capabilities: MMX2 SSE2Fast SSSE3 SSE4.2 AVX XOP FMA4 FMA3 LZCNT BMI1
x264 [info]: profile High, level 4.1
x264 [info]: frame I:1033 Avg QP:18.51 size: 70397
x264 [info]: frame P:28341 Avg QP:19.66 size: 26904
x264 [info]: frame B:109612 Avg QP:21.73 size: 9409
x264 [info]: consecutive B-frames: 1.5% 2.6% 6.8% 12.4% 17.0% 49.2% 7.1% 1.5% 1.3% 0.7%
x264 [info]: mb I I16..4: 5.7% 81.8% 12.5%
x264 [info]: mb P I16..4: 0.3% 12.7% 1.2% P16..4: 32.1% 38.7% 11.7% 0.0% 0.0% skip: 3.3%
x264 [info]: mb B I16..4: 0.0% 1.1% 0.1% B16..8: 43.1% 21.3% 2.9% direct: 4.6% skip:27.0% L0:41.1% L1:48.2% BI:10.7%
x264 [info]: 8x8 transform intra:88.8% inter:62.5%
x264 [info]: coded y,uvDC,uvAC intra: 97.0% 76.4% 41.7% inter: 28.9% 14.4% 1.0%
x264 [info]: i16 v,h,dc,p: 19% 10% 15% 56%
x264 [info]: i8 v,h,dc,ddl,ddr,vr,hd,vl,hu: 11% 6% 8% 10% 15% 14% 13% 12% 12%
x264 [info]: i4 v,h,dc,ddl,ddr,vr,hd,vl,hu: 13% 6% 2% 9% 16% 16% 14% 12% 12%
x264 [info]: i8c dc,h,v,p: 32% 29% 21% 18%
x264 [info]: Weighted P-Frames: Y:10.2% UV:5.2%
x264 [info]: ref P L0: 44.6% 12.0% 18.2% 6.6% 6.4% 4.5% 4.6% 2.7% 0.5% 0.0%
x264 [info]: ref B L0: 79.6% 9.7% 4.5% 2.5% 1.9% 1.2% 0.5%
x264 [info]: ref B L1: 94.5% 5.5%
x264 [info]: kb/s:2575.96

Скриншоты

Яндекс.Метрика
Рейтинг@Mail.ru