(Author's Song) Константин Никольский - Один взгляд назад - 1996 [FLAC, image+.cue, lossless]

 

Создавать темы 24-Янв-2015 19:03

-Константин Никольский / Один взгляд назад-- Год издания: 1996
Страна: Россия
Жанр: Author's Song
Продолжительность: 00:47:48-Лейбл издания: D.L. Lota Production
Страна-выпуска диска: France
Номер по каталогу: DL - 001
Формат: FLAC
Битрейт аудио: lossless
Тип рипа: image+.cue
Наличие сканов в содержимом раздачи: да

Трэклист

01.Зеркало мира (05:12)
02.Один взгляд назад (03:42)
03.Ночная птица (04:23)
04.Мой друг художник и поэт (06:10)
05.В моей душе осадок зла (04:53)
06.Птицы белые мои (04:44)
07.Музыкант (05:22)
08.Я сам из тех ... (03:59)
09.Воскресенье (06:27)
10.Когда поймешь умом ... (03:01)

Лог создания рипа

Exact Audio Copy V1.0 beta 3 from 29. August 2011
EAC extraction logfile from 5. January 2012, 21:33
Константин Никольский / Один взгляд назад
Used drive  : PIONEER DVD-RW  DVR-112D   Adapter: 0  ID: 0
Read mode               : Secure
Utilize accurate stream : Yes
Defeat audio cache      : Yes
Make use of C2 pointers : No
Read offset correction                      : 48
Overread into Lead-In and Lead-Out          : No
Fill up missing offset samples with silence : Yes
Delete leading and trailing silent blocks   : No
Null samples used in CRC calculations       : Yes
Used interface                              : Native Win32 interface for Win NT & 2000
Used output format              : User Defined Encoder
Selected bitrate                : 128 kBit/s
Quality                         : High
Add ID3 tag                     : No
Command line compressor         : C:\Program Files (x86)\Exact Audio Copy\FLAC\FLAC.EXE
Additional command line options :  -8 -V -T "ARTIST=%artist%" -T "TITLE=%title%" -T "ALBUM=%albumtitle%" -T "DATE=%year%" -T "TRACKNUMBER=%tracknr%" -T "GENRE=%genre%" -T "COMMENT=EAC FLAC -8" %source%
TOC of the extracted CD
Track |   Start  |  Length  | Start sector | End sector
---------------------------------------------------------
1  |  0:00.30 |  5:11.45 |        30    |    23399
2  |  5:12.00 |  3:41.15 |     23400    |    39989
3  |  8:53.15 |  4:22.65 |     39990    |    59704
4  | 13:16.05 |  6:09.30 |     59705    |    87409
5  | 19:25.35 |  4:52.45 |     87410    |   109354
6  | 24:18.05 |  4:43.40 |    109355    |   130619
7  | 29:01.45 |  5:21.10 |    130620    |   154704
8  | 34:22.55 |  3:58.60 |    154705    |   172614
9  | 38:21.40 |  6:26.50 |    172615    |   201614
10  | 44:48.15 |  3:00.15 |    201615    |   215129
Range status and errors
Selected range
Filename F:\Константин Никольский - Один взгляд назад\Константин Никольский - Один взгляд назад.wav
Peak level 100.0 %
Extraction speed 7.1 X
Range quality 100.0 %
Test CRC 92E38760
Copy CRC 92E38760
Copy OK
No errors occurred
AccurateRip summary
Track  1  accurately ripped (confidence 1)  [67085F93]  (AR v2)
Track  2  accurately ripped (confidence 1)  [201F643B]  (AR v2)
Track  3  accurately ripped (confidence 1)  [AD493557]  (AR v2)
Track  4  accurately ripped (confidence 1)  [4D2AF8FE]  (AR v2)
Track  5  accurately ripped (confidence 1)  [ADD75F15]  (AR v2)
Track  6  accurately ripped (confidence 1)  [D8FA552C]  (AR v2)
Track  7  accurately ripped (confidence 1)  [4C75C2A5]  (AR v2)
Track  8  accurately ripped (confidence 1)  [A1FA5D4D]  (AR v2)
Track  9  accurately ripped (confidence 1)  [7835EC45]  (AR v2)
Track 10  accurately ripped (confidence 1)  [17904785]  (AR v2)
All tracks accurately ripped
End of status report
---- CUETools DB Plugin V2.1.3
[CTDB TOCID: bMylBpHHHAK6MHEjr0V43JUamO4-] disk not present in database, Submit result: bMylBpHHHAK6MHEjr0V43JUamO4- has been uploaded

Индексная карта (non-compilant .cue)

REM GENRE Rock
REM DATE 1996
REM DISCID 7D0B340A
REM COMMENT "ExactAudioCopy v1.0b3"
PERFORMER "Константин Никольский"
TITLE "Один взгляд назад"
FILE "Константин Никольский - Один взгляд назад.flac" WAVE
TRACK 01 AUDIO
TITLE "Зеркало мира"
PERFORMER "Константин Никольский"
FLAGS DCP
INDEX 00 00:00:00
INDEX 01 00:00:30
TRACK 02 AUDIO
TITLE "Один взгляд назад"
PERFORMER "Константин Никольский"
FLAGS DCP
INDEX 01 05:12:00
TRACK 03 AUDIO
TITLE "Ночная птица"
PERFORMER "Константин Никольский"
FLAGS DCP
INDEX 01 08:53:15
TRACK 04 AUDIO
TITLE "Мой друг художник и поэт"
PERFORMER "Константин Никольский"
FLAGS DCP
INDEX 01 13:16:05
TRACK 05 AUDIO
TITLE "В моей душе осадок зла"
PERFORMER "Константин Никольский"
FLAGS DCP
INDEX 01 19:25:35
TRACK 06 AUDIO
TITLE "Птицы белые мои"
PERFORMER "Константин Никольский"
FLAGS DCP
INDEX 01 24:18:05
TRACK 07 AUDIO
TITLE "Музыкант"
PERFORMER "Константин Никольский"
FLAGS DCP
INDEX 01 29:01:45
TRACK 08 AUDIO
TITLE "Я сам из тех ..."
PERFORMER "Константин Никольский"
FLAGS DCP
INDEX 01 34:22:55
TRACK 09 AUDIO
TITLE "Воскресенье"
PERFORMER "Константин Никольский"
FLAGS DCP
INDEX 01 38:21:40
TRACK 10 AUDIO
TITLE "Когда поймешь умом ..."
PERFORMER "Константин Никольский"
FLAGS DCP
INDEX 01 44:48:15

Лог Audiochecker

AUDIOCHECKER v2.0 beta (build 457) - by Dester - [email protected]
~~~~~~~~~~~~~~~~~~~~~~~~~~~~~~~~~~
Started at: суббота, 24. 01. 2015. - 17:48.38
1 file found
1 -===- J:\временная папка музыка\Константин Никольский - Один взгляд назад (1996)\Константин Никольский - Один взгляд назад.flac
Extracted successfully
Conclusion: this track is CDDA with probability 100%
Tempfile successfully deleted.
Finished at: суббота, 24. 01. 2015. - 17:50.56 (operation time: 0:02.17)

Скриншот спектра частот

--Не забываем говорить
Яндекс.Метрика
Рейтинг@Mail.ru