[ Сегодня на трекере фрилич! Идет свободное скачивание без начисления Download ]

(Synth-pop) [CD] Kraftwerk - Der cheap - 2001, FLAC (image+.cue), lossless

 

Создавать темы 19-Янв-2015 21:46

-Kraftwerk - Der cheap-compilation for fan-clubs- Жанр: Synth-pop
Носитель: CD
Страна-производитель диска: E.C.
Год издания: 2001
Издатель (лейбл): FAVOURITE & ME Co., Ltd NATIONAL / GOOD MUSIC STUDIO
Номер по каталогу: F 041 P 20
Страна группы: Germany
Аудиокодек: FLAC (*.flac)
Тип рипа: image+.cue
Битрейт аудио: lossless
Продолжительность: 01:00:21
Источник: KhabtrackerDV
Наличие сканов в содержимом раздачи: да-Kraftwerk (кра́фтверк, нем. — электростанция) — немецкий музыкальный коллектив из Дюссельдорфа, внёсший заметный вклад в развитие электронной музыки. Группа была образована в 1968 году Флорианом Шнайдером и Ральфом Хюттером, но широкую известность приобрела, став квартетом, в который вошли также Вольфганг Флюр и Карл Бартос.
http://www.kraftwerk.com/

Треклист:

01. Expo 2000 [05:38]
02. Warning: Danger [03:27]
03. Energy Overload [03:13]
04. Biotico [03:18]
05. Cybernetic Interspace [03:13]
06. Floppy Disc (Interrupted) [03:32]
07. Androids [03:09]
08. Pocket Calculator (Bartos Version) [03:35]
09. Boing Boom Tschak (Re-Mix) [03:38]
10. Space Lab (Chemistry Version) [03:24]
11. Computer World (Re-Mix) [03:20]
12. It`s More Fun To Compute (More Fun Re-Mix) [03:04]
13. Musique Non Stop (Re-Mix) [03:43]
14. Trance Europe Express (Re-Mix) [03:41]
15. Der Roboter (Kling Klang Re-Mix) [03:31]
16. Tour De France (Analogue Re-Mix) [06:48]

Лог EAC

Exact Audio Copy V1.0 beta 4 from 7. December 2014
Отчёт EAC об извлечении, выполненном 18. января 2015, 17:54
Kraftwerk / Der Cheap
Дисковод: Optiarc DVD RW AD-7760H   Adapter: 1  ID: 0
Режим чтения                 : Достоверность
Использование точного потока : Да
Отключение кэша аудио        : Да
Использование указателей C2  : Нет
Коррекция смещения при чтении                     : 48
Способность читать области Lead-in и Lead-out     : Нет
Заполнение пропущенных сэмплов тишиной            : Да
Удаление блоков с тишиной в начале и конце        : Нет
При вычислениях CRC использовались нулевые сэмплы : Да
Интерфейс                                         : Встроенный Win32-интерфейс для Win NT/2000
Выходной формат          : Пользовательский кодировщик
Выбранный битрейт        : 128 kBit/s
Качество                 : Высокий
Добавление ID3-тега      : Нет
Утилита сжатия           : C:\Program Files (x86)\Exact Audio Copy\Flac\flac.exe
Дополнительные параметры : -V -8 -T "Date=%year%" -T "Genre=%genre%" %source%
TOC извлечённого CD
     Трек |   Старт  | Длительность | Начальный сектор | Конечный сектор
    ---------------------------------------------------------------------
       1  |  0:00.00 |    5:38.33   |           0      |      25382
       2  |  5:38.33 |    3:27.40   |       25383      |      40947
       3  |  9:05.73 |    3:13.66   |       40948      |      55488
       4  | 12:19.64 |    3:18.57   |       55489      |      70395
       5  | 15:38.46 |    3:13.09   |       70396      |      84879
       6  | 18:51.55 |    3:32.00   |       84880      |     100779
       7  | 22:23.55 |    3:09.27   |      100780      |     114981
       8  | 25:33.07 |    3:35.68   |      114982      |     131174
       9  | 29:09.00 |    3:38.22   |      131175      |     147546
      10  | 32:47.22 |    3:24.30   |      147547      |     162876
      11  | 36:11.52 |    3:20.69   |      162877      |     177945
      12  | 39:32.46 |    3:04.70   |      177946      |     191815
      13  | 42:37.41 |    3:43.12   |      191816      |     208552
      14  | 46:20.53 |    3:41.55   |      208553      |     225182
      15  | 50:02.33 |    3:31.09   |      225183      |     241016
      16  | 53:33.42 |    6:48.05   |      241017      |     271621
Характеристики диапазона извлечения и сообщения об ошибках
Выбранный диапазон
     Имя файла J:\Трэкер\Kraftwerk - Der Cheap\Kraftwerk - Der Cheap.wav
     Пиковый уровень 100.0 %
     Скорость извлечения 2.1 X
     Качество диапазона 100.0 %
     CRC теста A8285B69
     CRC копии A8285B69
     Копирование... OK
Ошибок не произошло
AccurateRip: сводка
Трек  1  отсутствует в базе данных
Трек  2  отсутствует в базе данных
Трек  3  отсутствует в базе данных
Трек  4  отсутствует в базе данных
Трек  5  отсутствует в базе данных
Трек  6  отсутствует в базе данных
Трек  7  отсутствует в базе данных
Трек  8  отсутствует в базе данных
Трек  9  отсутствует в базе данных
Трек 10  отсутствует в базе данных
Трек 11  отсутствует в базе данных
Трек 12  отсутствует в базе данных
Трек 13  отсутствует в базе данных
Трек 14  отсутствует в базе данных
Трек 15  отсутствует в базе данных
Трек 16  отсутствует в базе данных
Ни одного трека нет в базе AccurateRip
Конец отчёта
==== Контрольная сумма отчёта 2804D5250C9E7B611EB0D81878046F5BBC878279086776953B7EBA2E9FD84EC1 ====
-
Яндекс.Метрика
Рейтинг@Mail.ru