Эквилибриум / Equilibrium (Курт Виммер / Kurt Wimmer) [2002 г., Фантастика, боевик, триллер, драма, BDRip, 720p] AVO (Живов, Королёв, Рудой, Строев, Ловаситов, Гранкин) + Original (Eng)

 

Создавать темы 17-Янв-2015 04:23

Эквилибриум / Equilibrium
Год выпуска: 2002
Производство: США
Жанр: Фантастика, боевик, триллер, драма
Продолжительность: 01:47:04
Перевод: Авторский (одноголосый, закадровый) Юрий Живов, Владимир Королёв, Евгений Рудой
Перевод: Авторский (одноголосый, закадровый) Денис Строев, Сергей Ловаситов, Евгений Гранкин
Оригинальный аудиопоток: английский
Субтитры: отсутствуют
Режиссер: Курт Виммер / Kurt Wimmer
В ролях: Кристиан Бэйл, Шон Бин, Эмили Уотсон, Тэй Диггз, Энгус МакФадьен, Шон Пертуи, Уильям Фихтнер, Джон Кеог, Дэвид Барраш, Дирк Мартенс, Доминик Пурселл
Описание: Действие происходит в будущем, когда люди лишены возможности выражать какие-то эмоции, потому, что они… запрещены. Это — та цена, которую человечество платит за устранение из своей жизни войны. Теперь книги, искусство и музыка находятся вне закона. А любое чувство — уже преступление, наказуемое смертью.
Для проведения в жизнь существующего правила используется принудительное применение лекарства «прозиум». Правительственный агент Джон Престон борется с теми, кто нарушает правила. В один прекрасный момент он забывает принять очередную дозу лекарства и с ним происходит духовное превращение, что приводит его к противоречию с самим собой и с начальством.
Сэмпл , , КиноПоиск
Качество видео: BDRip
Контейнер: MKV
Стандарт разрешения: 720p
Видео кодек: H.264
Аудио кодек: AC3
Видео: 1280x720, 23.976 fps, 5060 Kbps, 0.229 Bt/Px
Аудио : AC-3, 640Kbps, 6 ch, 48.0 KHz Rus Живов
Аудио : AC-3, 640 Kbps, 6 ch, 48.0 KHz Rus Королёв
Аудио : AC-3, 640 Kbps, 6 ch, 48.0 KHz Rus Рудой
Аудио : AC-3, 448 Kbps, 6 ch, 48.0 KHz Rus Строев
Аудио : AC-3, 448 Kbps, 6 ch, 48.0 KHz Rus Ловаситов
Аудио : AC-3, 192 Kbps, 2 ch, 48.0 KHz Rus Гранкин
Аудио : AC-3, 640 Kbps, 6 ch, 48.0 KHz Eng Original

Доп. информация

OPEN MATTE

Media Info

G:\загрузки\Equilibrium_[Pirat.ca].torrent.mkv
General
Unique ID : 210964786007594575990739352382698993479 (0x9EB65700F4907BAC88F3564DEEB4B747)
Complete name : G:\загрузки\Equilibrium_[Pirat.ca].torrent.mkv
Format : Matroska
Format version : Version 1
File size : 6.65 GiB
Duration : 1h 47mn
Overall bit rate : 8 885 Kbps
Movie name : Эквилибриум | Equilibrium [2002] -Open Matte- / -= BDRip (720p) by 0ptimus =-
Encoded date : UTC 2015-01-15 15:24:44
Writing application : mkvmerge v2.5.3 ('Boogie') built on Mar 7 2009 15:00:41
Writing library : libebml v0.7.7 + libmatroska v0.8.1
Video #1
ID : 1
Format : AVC
Format/Info : Advanced Video Codec
Format profile : [email protected]
Format settings, CABAC : Yes
Format settings, ReFrames : 9 frames
Codec ID : V_MPEG4/ISO/AVC
Duration : 1h 47mn
Bit rate : 5 060 Kbps
Width : 1 280 pixels
Height : 720 pixels
Display aspect ratio : 16:9
Frame rate mode : Constant
Frame rate : 23.976 fps
Color space : YUV
Chroma subsampling : 4:2:0
Bit depth : 8 bits
Scan type : Progressive
Bits/(Pixel*Frame) : 0.229
Stream size : 3.78 GiB (57%)
Writing library : x264 core 130 r2273 b3065e6
Encoding settings : cabac=1 / ref=9 / deblock=1:-3:-3 / analyse=0x3:0x133 / me=umh / subme=11 / psy=1 / psy_rd=1.00:0.15 / mixed_ref=1 / me_range=32 / chroma_me=1 / trellis=2 / 8x8dct=1 / cqm=0 / deadzone=21,11 / fast_pskip=1 / chroma_qp_offset=-3 / threads=6 / lookahead_threads=1 / sliced_threads=0 / nr=0 / decimate=1 / interlaced=0 / bluray_compat=0 / constrained_intra=0 / bframes=8 / b_pyramid=2 / b_adapt=2 / b_bias=0 / direct=1 / weightb=1 / open_gop=0 / weightp=2 / keyint=250 / keyint_min=23 / scenecut=40 / intra_refresh=0 / rc_lookahead=50 / rc=crf / mbtree=1 / crf=16.5 / qcomp=0.60 / qpmin=0 / qpmax=51 / qpstep=4 / ip_ratio=1.40 / aq=1:1.00
Language : English
Default : Yes
Forced : No
Audio #2
ID : 2
Format : AC-3
Format/Info : Audio Coding 3
Mode extension : CM (complete main)
Format settings, Endianness : Big
Codec ID : A_AC3
Duration : 1h 47mn
Bit rate mode : Constant
Bit rate : 640 Kbps
Channel(s) : 6 channels
Channel positions : Front: L C R, Side: L R, LFE
Sampling rate : 48.0 KHz
Bit depth : 16 bits
Compression mode : Lossy
Stream size : 490 MiB (7%)
Title : AVO Живов
Language : Russian
Default : Yes
Forced : No
Audio #3
ID : 3
Format : AC-3
Format/Info : Audio Coding 3
Mode extension : CM (complete main)
Format settings, Endianness : Big
Codec ID : A_AC3
Duration : 1h 47mn
Bit rate mode : Constant
Bit rate : 640 Kbps
Channel(s) : 6 channels
Channel positions : Front: L C R, Side: L R, LFE
Sampling rate : 48.0 KHz
Bit depth : 16 bits
Compression mode : Lossy
Stream size : 490 MiB (7%)
Title : AVO Королев
Language : Russian
Default : No
Forced : No
Audio #4
ID : 4
Format : AC-3
Format/Info : Audio Coding 3
Mode extension : CM (complete main)
Format settings, Endianness : Big
Codec ID : A_AC3
Duration : 1h 47mn
Bit rate mode : Constant
Bit rate : 640 Kbps
Channel(s) : 6 channels
Channel positions : Front: L C R, Side: L R, LFE
Sampling rate : 48.0 KHz
Bit depth : 16 bits
Compression mode : Lossy
Stream size : 490 MiB (7%)
Title : AVO Рудой
Language : Russian
Default : No
Forced : No
Audio #5
ID : 5
Format : AC-3
Format/Info : Audio Coding 3
Mode extension : CM (complete main)
Format settings, Endianness : Big
Codec ID : A_AC3
Duration : 1h 47mn
Bit rate mode : Constant
Bit rate : 448 Kbps
Channel(s) : 6 channels
Channel positions : Front: L C R, Side: L R, LFE
Sampling rate : 48.0 KHz
Bit depth : 16 bits
Compression mode : Lossy
Stream size : 343 MiB (5%)
Title : AVO Строев
Language : Russian
Default : No
Forced : No
Audio #6
ID : 6
Format : AC-3
Format/Info : Audio Coding 3
Mode extension : CM (complete main)
Format settings, Endianness : Big
Codec ID : A_AC3
Duration : 1h 47mn
Bit rate mode : Constant
Bit rate : 448 Kbps
Channel(s) : 6 channels
Channel positions : Front: L C R, Side: L R, LFE
Sampling rate : 48.0 KHz
Bit depth : 16 bits
Compression mode : Lossy
Stream size : 343 MiB (5%)
Title : AVO Ловаситов
Language : Russian
Default : No
Forced : No
Audio #7
ID : 7
Format : AC-3
Format/Info : Audio Coding 3
Mode extension : CM (complete main)
Format settings, Endianness : Big
Codec ID : A_AC3
Duration : 1h 47mn
Bit rate mode : Constant
Bit rate : 192 Kbps
Channel(s) : 2 channels
Channel positions : Front: L R
Sampling rate : 48.0 KHz
Bit depth : 16 bits
Compression mode : Lossy
Stream size : 147 MiB (2%)
Title : AVOГранкин
Language : Russian
Default : No
Forced : No
Audio #8
ID : 8
Format : AC-3
Format/Info : Audio Coding 3
Mode extension : CM (complete main)
Format settings, Endianness : Big
Codec ID : A_AC3
Duration : 1h 47mn
Bit rate mode : Constant
Bit rate : 640 Kbps
Channel(s) : 6 channels
Channel positions : Front: L C R, Side: L R, LFE
Sampling rate : 48.0 KHz
Bit depth : 16 bits
Compression mode : Lossy
Stream size : 490 MiB (7%)
Language : English
Default : No
Forced : No

log x.264

x264 [info]: frame I:1429  Avg QP:13.63  size:119295
x264 [info]: frame P:34215 Avg QP:16.65 size: 47667
x264 [info]: frame B:118051 Avg QP:18.34 size: 20442
x264 [info]: consecutive B-frames: 2.3% 2.2% 5.7% 30.1% 19.4% 34.1% 3.2% 1.8% 1.2%
x264 [info]: mb I I16..4: 6.6% 84.3% 9.1%
x264 [info]: mb P I16..4: 0.8% 22.6% 1.1% P16..4: 26.5% 31.1% 9.8% 1.7% 0.1% skip: 6.3%
x264 [info]: mb B I16..4: 0.1% 4.0% 0.1% B16..8: 34.0% 20.0% 2.7% direct: 9.4% skip:29.8% L0:42.4% L1:41.1% BI:16.5%
x264 [info]: 8x8 transform intra:92.7% inter:47.3%
x264 [info]: coded y,uvDC,uvAC intra: 96.7% 47.2% 16.0% inter: 33.4% 11.4% 0.4%
x264 [info]: i16 v,h,dc,p: 35% 8% 14% 43%
x264 [info]: i8 v,h,dc,ddl,ddr,vr,hd,vl,hu: 12% 10% 12% 8% 10% 11% 10% 12% 14%
x264 [info]: i4 v,h,dc,ddl,ddr,vr,hd,vl,hu: 14% 8% 5% 8% 15% 15% 13% 11% 11%
x264 [info]: i8c dc,h,v,p: 22% 39% 21% 17%
x264 [info]: Weighted P-Frames: Y:6.9% UV:2.3%
x264 [info]: ref P L0: 40.6% 6.9% 21.4% 8.4% 7.4% 5.0% 4.8% 2.6% 2.7% 0.4% 0.0%
x264 [info]: ref B L0: 75.5% 11.5% 5.2% 2.9% 2.0% 1.7% 1.0% 0.5%
x264 [info]: ref B L1: 94.7% 5.3%
x264 [info]: kb/s:5259.69
x264 [total]: encoded 153695 frames, 3.42 fps, 5259.69 kb/s

Скриншоты

Яндекс.Метрика
Рейтинг@Mail.ru