[ Сегодня на трекере фрилич! Идет свободное скачивание без начисления Download ]

Утоли моя печали (Виктор Прохоров, Александр Александров) [1989 г., драма, DVDRip]

 

Создавать темы 17-Янв-2015 04:11

-Утоли моя печали-- Производство: СССР. Мосфильм
Режиссеры: Виктор Прохоров, Александр Александров
Жанр: драма
Год выпуска: 1989 г.
Продолжительность: 01:28:34
В ролях: С. Колтаков, Е. Сафонова, В. Сошальская, А. Миронов, К. Воинов, Е. Урусова, А. Болтнев, Н. Гейко, Г. Константинопольский, С. Воронина, И. Резникова, М. Васьков, Г. Самойлова, В. Черных, А. Александров-Описание: Устав от беспросветной жизни, Борис бросает работу бульдозериста, где он как-то мог зарабатывать на жизнь, и поступает на вечернее отделение Института культуры. И без того нескладная семейная жизнь рушится. Его десятилетний сын, лишенный родительского внимания, всей душой привязывается к старой интеллигентной женщине Марии Николаевне, с которой Борис намерен обменять комнату. Неумолимо приближается день судебного разбирательства, но не так-то просто отпустить того, кто постоянно жертвовал собой ради семейного благополучия и любви.-Качество видео: DVDRip
Контейнер: AVI
Видео кодек: XviD
Аудио кодек: AC3
Видео: 704x512; 1084 kbps; 25 fps; 0.120 bit/pixel
Аудио: 192 kbps; 2 ch; 48 kHz
Cубтитры: отсутствуют

Media Info

General
Complete name : D:\Torrent\Utoli_moja_pechali_[Pirat.ca].torrent.avi
Format : AVI
Format/Info : Audio Video Interleave
File size : 815 MiB
Duration : 1h 28mn
Overall bit rate : 1 286 Kbps
Writing application : VirtualDubModRus 1.5.10.2 (build 2542/release)
Writing library : VirtualDub build 35390/release
Video
ID : 0
Format : MPEG-4 Visual
Format profile : Advanced [email protected]
Format settings, BVOP : 2
Format settings, QPel : No
Format settings, GMC : No warppoints
Format settings, Matrix : Default (H.263)
Muxing mode : Packed bitstream
Codec ID : XVID
Codec ID/Hint : XviD
Duration : 1h 28mn
Bit rate : 1 084 Kbps
Width : 704 pixels
Height : 512 pixels
Display aspect ratio : 1.375
Frame rate : 25.000 fps
Color space : YUV
Chroma subsampling : 4:2:0
Bit depth : 8 bits
Scan type : Progressive
Compression mode : Lossy
Bits/(Pixel*Frame) : 0.120
Stream size : 687 MiB (84%)
Writing library : XviD 73
Audio
ID : 1
Format : AC-3
Format/Info : Audio Coding 3
Mode extension : CM (complete main)
Format settings, Endianness : Big
Codec ID : 2000
Duration : 1h 28mn
Bit rate mode : Constant
Bit rate : 192 Kbps
Channel(s) : 2 channels
Channel positions : Front: L R
Sampling rate : 48.0 KHz
Bit depth : 16 bits
Compression mode : Lossy
Stream size : 122 MiB (15%)
Alignment : Aligned on interleaves
Interleave, duration : 40 ms (1.00 video frame)
Interleave, preload duratio : 512 ms

Скриншоты

Раздача

Раздача с 14.00 до 2.30 (время московское)
Яндекс.Метрика
Рейтинг@Mail.ru