(Bass, Deep Dubstep, Garage, House, Techno) Ext - One of the Moments - 2015 [FLAC, tracks+.cue, Lossless]

 

Создавать темы 15-Янв-2015 06:09

-E X T
One of the Moments
--
Год издания: 2015
Жанр: Bass, Deep Dubstep, Garage, House, Techno
Продолжительность: 00:55:28-Лейбл издания: Stylss
Номер по каталогу: STYLSS033
Формат: FLAC
Битрейт аудио: Lossless
Тип рипа: tracks+.cue
Наличие сканов в содержимом раздачи: нет
-Трэклист:
01. Time Flies 04:06
02. Causing Passion 04:17
03. Clearance 04:31
04. Cold Reflection 03:58
05. Dark Moon 04:35
06. Kevin 04:45
07. Love Me 04:45
08. Metro 04:24
09. Don't Go 04:54
10. Silent 05:12
11. Tension 03:50
12. Warrior 05:44

Лог создания рипа

Exact Audio Copy V0.99 prebeta 3 from 28. July 2007
Отчёт EAC об извлечении, выполненном 14. января 2015, 8:28
EXT / One of the Moments
Дисковод: TSSTcorpCDDVDW SH-S223F   Adapter: 0  ID: 0
Режим чтения                 : Достоверность
Использование точного потока : Да
Отключение кэша аудио        : Да
Использование указателей C2  : Нет
Коррекция смещения при чтении                     : 6
Способность читать области Lead-in и Lead-out     : Нет
Заполнение пропущенных сэмплов тишиной            : Да
Удаление блоков с тишиной в начале и конце        : Нет
При вычислениях CRC использовались нулевые сэмплы : Нет
Интерфейс                                         : Встроенный Win32-интерфейс для Win NT/2000
Обработка зазоров                                 : Добавлено к предыдущему треку
Выходной формат          : Пользовательский кодировщик
Выбранный битрейт        : 768 kBit/s
Качество                 : Высокий
Добавление ID3-тэга      : Нет
Утилита сжатия           : C:\Program Files (x86)\Exact Audio Copy\FLAC\FLAC.EXE
Дополнительные параметры : -8 -V -T "ARTIST=%a" -T "TITLE=%t" -T "ALBUM=%g" -T "DATE=%y" -T "TRACKNUMBER=%n" -T "GENRE=%m" -T "COMMENT=EAC FLAC -8" %s
TOC извлечённого CD
Трек |   Старт  | Длительность | Начальный сектор | Конечный сектор
---------------------------------------------------------------------
1  |  0:00.00 |    4:08.21   |           0      |      18620
2  |  4:08.21 |    4:19.58   |       18621      |      38103
3  |  8:28.04 |    4:33.65   |       38104      |      58643
4  | 13:01.69 |    4:00.12   |       58644      |      76655
5  | 17:02.06 |    4:37.22   |       76656      |      97452
6  | 21:39.28 |    4:47.61   |       97453      |     119038
7  | 26:27.14 |    4:47.63   |      119039      |     140626
8  | 31:15.02 |    4:26.00   |      140627      |     160576
9  | 35:41.02 |    4:56.00   |      160577      |     182776
10  | 40:37.02 |    5:14.00   |      182777      |     206326
11  | 45:51.02 |    3:52.73   |      206327      |     223799
12  | 49:44.00 |    5:44.66   |      223800      |     249665
Трек  1
Имя файла P:\музыка2\Ext - One of the Moments [Flac]\01 - Time Flies.wav
Длина предзазора  0:00:02.00
Пиковый уровень 69.9 %
Качество трека 100.0 %
CRC теста F48114AA
CRC копии F48114AA
Трек не обнаружен в базе AccurateRip
Копирование... OK
Трек  2
Имя файла P:\музыка2\Ext - One of the Moments [Flac]\02 - Causing Passion.wav
Длина предзазора  0:00:02.00
Пиковый уровень 70.4 %
Качество трека 100.0 %
CRC теста B6B1937B
CRC копии B6B1937B
Трек не обнаружен в базе AccurateRip
Копирование... OK
Трек  3
Имя файла P:\музыка2\Ext - One of the Moments [Flac]\03 - Clearance.wav
Длина предзазора  0:00:02.00
Пиковый уровень 70.4 %
Качество трека 100.0 %
CRC теста AFB9BE3D
CRC копии AFB9BE3D
Трек не обнаружен в базе AccurateRip
Копирование... OK
Трек  4
Имя файла P:\музыка2\Ext - One of the Moments [Flac]\04 - Cold Reflection.wav
Длина предзазора  0:00:02.00
Пиковый уровень 69.3 %
Качество трека 100.0 %
CRC теста CE90434E
CRC копии CE90434E
Трек не обнаружен в базе AccurateRip
Копирование... OK
Трек  5
Имя файла P:\музыка2\Ext - One of the Moments [Flac]\05 - Dark Moon.wav
Длина предзазора  0:00:02.00
Пиковый уровень 69.2 %
Качество трека 99.9 %
CRC теста 9430BC3E
CRC копии 9430BC3E
Трек не обнаружен в базе AccurateRip
Копирование... OK
Трек  6
Имя файла P:\музыка2\Ext - One of the Moments [Flac]\06 - Kevin.wav
Длина предзазора  0:00:02.00
Пиковый уровень 70.4 %
Качество трека 100.0 %
CRC теста A0545D74
CRC копии A0545D74
Трек не обнаружен в базе AccurateRip
Копирование... OK
Трек  7
Имя файла P:\музыка2\Ext - One of the Moments [Flac]\07 - Love Me.wav
Длина предзазора  0:00:02.00
Пиковый уровень 68.8 %
Качество трека 100.0 %
CRC теста B4AB789E
CRC копии B4AB789E
Трек не обнаружен в базе AccurateRip
Копирование... OK
Трек  8
Имя файла P:\музыка2\Ext - One of the Moments [Flac]\08 - Metro.wav
Длина предзазора  0:00:02.00
Пиковый уровень 69.3 %
Качество трека 99.9 %
CRC теста 5A203A3A
CRC копии 5A203A3A
Трек не обнаружен в базе AccurateRip
Копирование... OK
Трек  9
Имя файла P:\музыка2\Ext - One of the Moments [Flac]\09 - Don't Go.wav
Длина предзазора  0:00:02.00
Пиковый уровень 71.0 %
Качество трека 100.0 %
CRC теста CCE1F41E
CRC копии CCE1F41E
Трек не обнаружен в базе AccurateRip
Копирование... OK
Трек 10
Имя файла P:\музыка2\Ext - One of the Moments [Flac]\10 - Silent.wav
Длина предзазора  0:00:02.00
Пиковый уровень 71.0 %
Качество трека 100.0 %
CRC теста BC252931
CRC копии BC252931
Трек не обнаружен в базе AccurateRip
Копирование... OK
Трек 11
Имя файла P:\музыка2\Ext - One of the Moments [Flac]\11 - Tension.wav
Длина предзазора  0:00:02.00
Пиковый уровень 68.8 %
Качество трека 100.0 %
CRC теста 635EA9AD
CRC копии 635EA9AD
Трек не обнаружен в базе AccurateRip
Копирование... OK
Трек 12
Имя файла P:\музыка2\Ext - One of the Moments [Flac]\12 - Warrior.wav
Длина предзазора  0:00:02.00
Пиковый уровень 69.9 %
Качество трека 100.0 %
CRC теста 8BE12C02
CRC копии 8BE12C02
Трек не обнаружен в базе AccurateRip
Копирование... OK
Ни одного трека нет в базе AccurateRip
Ошибок не произошло
Конец отчёта

Индексная карта (non-compilant .cue)

REM GENRE "Bass, Deep Dubstep, Garage, House, Techno"
REM DATE 2015
REM DISCID A10D000C
REM COMMENT "ExactAudioCopy v0.99pb3"
PERFORMER "EXT"
TITLE "One of the Moments"
FILE "01 - Time Flies.wav" WAVE
TRACK 01 AUDIO
TITLE "Time Flies"
PERFORMER "EXT"
FLAGS DCP
INDEX 01 00:00:00
TRACK 02 AUDIO
TITLE "Causing Passion"
PERFORMER "EXT"
FLAGS DCP
INDEX 00 04:06:21
FILE "02 - Causing Passion.wav" WAVE
INDEX 01 00:00:00
TRACK 03 AUDIO
TITLE "Clearance"
PERFORMER "EXT"
FLAGS DCP
INDEX 00 04:17:58
FILE "03 - Clearance.wav" WAVE
INDEX 01 00:00:00
TRACK 04 AUDIO
TITLE "Cold Reflection"
PERFORMER "EXT"
FLAGS DCP
INDEX 00 04:31:65
FILE "04 - Cold Reflection.wav" WAVE
INDEX 01 00:00:00
TRACK 05 AUDIO
TITLE "Dark Moon"
PERFORMER "EXT"
FLAGS DCP
INDEX 00 03:58:12
FILE "05 - Dark Moon.wav" WAVE
INDEX 01 00:00:00
TRACK 06 AUDIO
TITLE "Kevin"
PERFORMER "EXT"
FLAGS DCP
INDEX 00 04:35:22
FILE "06 - Kevin.wav" WAVE
INDEX 01 00:00:00
TRACK 07 AUDIO
TITLE "Love Me"
PERFORMER "EXT"
FLAGS DCP
INDEX 00 04:45:61
FILE "07 - Love Me.wav" WAVE
INDEX 01 00:00:00
TRACK 08 AUDIO
TITLE "Metro"
PERFORMER "EXT"
FLAGS DCP
INDEX 00 04:45:63
FILE "08 - Metro.wav" WAVE
INDEX 01 00:00:00
TRACK 09 AUDIO
TITLE "Don't Go"
PERFORMER "EXT"
FLAGS DCP
INDEX 00 04:24:00
FILE "09 - Don't Go.wav" WAVE
INDEX 01 00:00:00
TRACK 10 AUDIO
TITLE "Silent"
PERFORMER "EXT"
FLAGS DCP
INDEX 00 04:54:00
FILE "10 - Silent.wav" WAVE
INDEX 01 00:00:00
TRACK 11 AUDIO
TITLE "Tension"
PERFORMER "EXT"
FLAGS DCP
INDEX 00 05:12:00
FILE "11 - Tension.wav" WAVE
INDEX 01 00:00:00
TRACK 12 AUDIO
TITLE "Warrior"
PERFORMER "EXT"
FLAGS DCP
INDEX 00 03:50:73
FILE "12 - Warrior.wav" WAVE
INDEX 01 00:00:00

Лог Audiochecker

AUDIOCHECKER v2.0 beta (build 457) - by Dester - [email protected]
~~~~~~~~~~~~~~~~~~~~~~~~~~~~~~~~~~
-=== НЕ РЕДАКТИРУЙТЕ ЭТОТ ФАЙЛ! ===-
Путь: ...\Ext - One of the Moments [Flac]
01 -=- 01 - Time Flies.flac -=- CDDA (100%)
02 -=- 02 - Causing Passion.flac -=- CDDA (100%)
03 -=- 03 - Clearance.flac -=- CDDA (100%)
04 -=- 04 - Cold Reflection.flac -=- CDDA (99%)
05 -=- 05 - Dark Moon.flac -=- CDDA (99%)
06 -=- 06 - Kevin.flac -=- CDDA (100%)
07 -=- 07 - Love Me.flac -=- CDDA (100%)
08 -=- 08 - Metro.flac -=- CDDA (100%)
09 -=- 09 - Don't Go.flac -=- CDDA (100%)
10 -=- 10 - Silent.flac -=- CDDA (100%)
11 -=- 11 - Tension.flac -=- CDDA (100%)
12 -=- 12 - Warrior.flac -=- CDDA (100%)
Сводка 99,83% CDDA
262482692
-
Яндекс.Метрика
Рейтинг@Mail.ru