Час пик / Rush Hour (Бретт Ратнер / Brett Ratner) [1998 г., комедия, боевик, BDRip-AVC] AVO (Живов, Санаев) + Dub

 

Создавать темы 13-Янв-2015 15:43

Час пик / Rush Hour
Год выпуска: 1998
Производство: США
Жанр: комедия, боевик
Продолжительность: 1:37:50
Перевод: Авторский (одноголосый, закадровый) Живов, Санаев
Перевод 2: Профессиональный (полное дублирование)
Режиссер: Бретт Ратнер / Brett Ratner
В ролях: Джеки Чан, Крис Такер, Том Уилкинсон, Крис Пенн, Кен Леунг, Элизабет Пенья, Майкл Чоу, Филип Бэйкер Холл, Роберт Литтман, Кай Леннокс, Лэрри Салливан

Описание: В Лос-Анджелесе злодеи похищают малолетнюю дочь китайского консула, которую в Гонконге учил кунг-фу инспектор Ли. Консул вызывает Ли в Америку, чтобы тот принял участие в освобождении девочки.
Агенты ФБР обратились к полиции с просьбой выделить им самого никчемного сотрудника, чтобы тот взял китайца на себя и показал ему достопримечательности, а главное, не позволил вмешиваться в их дела.
Им оказывается самый болтливый полицейский Картер. Естественно, после ряда разногласий и недоразумений они объединяют усилия и всерьез берутся за вызволение заложницы.

Сэмпл
Качество видео: BDRip-AVC
Контейнер: MKV
Видео кодек: H.264
Аудио кодек: AC3
Видео: 3 000 Kbps, 1136*464 pixels, 2.40:1, 23.976 fps
Аудио : AC3, 384 Kbps, 6 channels, 48.0 KHz, 16 bits - Живов
Аудио #2: AC3, 384 Kbps, 6 channels, 48.0 KHz, 16 bits - Санаев
Аудио #3: AC3, 384 Kbps, 6 channels, 48.0 KHz, 16 bits - DUB

Media Info

C:\Users\leha\Desktop\Новая папка (4)\Час пик.BDRip-AVC.1998.mkv
General
Unique ID : 207593764987179571189798423737526723746 (0x9C2D1AD5DB3C778E9449494DE63924A2)
Complete name : C:\Users\leha\Desktop\Новая папка (4)\Час пик.BDRip-AVC.1998.mkv
Format : Matroska
Format version : Version 4 / Version 2
File size : 2.84 GiB
Duration : 1h 37mn
Overall bit rate : 4 152 Kbps
Encoded date : UTC 2015-01-12 19:07:23
Writing application : mkvmerge v6.1.0 ('Old Devil') built on Mar 4 2013 09:10:42
Writing library : libebml v1.3.0 + libmatroska v1.4.0
Video #1
ID : 1
Format : AVC
Format/Info : Advanced Video Codec
Format profile : [email protected]
Format settings, CABAC : Yes
Format settings, ReFrames : 15 frames
Codec ID : V_MPEG4/ISO/AVC
Duration : 1h 37mn
Bit rate : 3 000 Kbps
Width : 1 136 pixels
Height : 464 pixels
Display aspect ratio : 2.40:1
Frame rate : 23.976 fps
Color space : YUV
Chroma subsampling : 4:2:0
Bit depth : 8 bits
Scan type : Progressive
Bits/(Pixel*Frame) : 0.237
Stream size : 1.99 GiB (70%)
Writing library : x264 core 130 r2273 b3065e6
Encoding settings : cabac=1 / ref=15 / deblock=1:-1:-1 / analyse=0x3:0x133 / me=umh / subme=10 / psy=1 / psy_rd=1.00:0.15 / mixed_ref=1 / me_range=32 / chroma_me=1 / trellis=2 / 8x8dct=1 / cqm=0 / deadzone=21,11 / fast_pskip=0 / chroma_qp_offset=-3 / threads=12 / lookahead_threads=2 / sliced_threads=0 / nr=0 / decimate=0 / interlaced=0 / bluray_compat=0 / constrained_intra=0 / bframes=8 / b_pyramid=2 / b_adapt=2 / b_bias=0 / direct=3 / weightb=1 / open_gop=0 / weightp=2 / keyint=250 / keyint_min=23 / scenecut=40 / intra_refresh=0 / rc=2pass / mbtree=0 / bitrate=3000 / ratetol=1.0 / qcomp=0.60 / qpmin=0 / qpmax=69 / qpstep=4 / cplxblur=20.0 / qblur=0.5 / ip_ratio=1.40 / pb_ratio=1.30 / aq=1:1.00
Audio #2
ID : 2
Format : AC-3
Format/Info : Audio Coding 3
Mode extension : CM (complete main)
Codec ID : A_AC3
Duration : 1h 37mn
Bit rate mode : Constant
Bit rate : 384 Kbps
Channel(s) : 6 channels
Channel positions : Front: L C R, Side: L R, LFE
Sampling rate : 48.0 KHz
Bit depth : 16 bits
Compression mode : Lossy
Stream size : 269 MiB (9%)
Title : Живов
Audio #3
ID : 3
Format : AC-3
Format/Info : Audio Coding 3
Mode extension : CM (complete main)
Codec ID : A_AC3
Duration : 1h 37mn
Bit rate mode : Constant
Bit rate : 384 Kbps
Channel(s) : 6 channels
Channel positions : Front: L C R, Side: L R, LFE
Sampling rate : 48.0 KHz
Bit depth : 16 bits
Compression mode : Lossy
Stream size : 269 MiB (9%)
Title : Санаев
Audio #4
ID : 4
Format : AC-3
Format/Info : Audio Coding 3
Mode extension : CM (complete main)
Codec ID : A_AC3
Duration : 1h 37mn
Bit rate mode : Constant
Bit rate : 384 Kbps
Channel(s) : 6 channels
Channel positions : Front: L C R, Side: L R, LFE
Sampling rate : 48.0 KHz
Bit depth : 16 bits
Compression mode : Lossy
Stream size : 269 MiB (9%)
Title : DUB

log x.264

x264 [info]: frame I:1458  Avg QP:17.34  size: 89736
x264 [info]: frame P:31037 Avg QP:19.93 size: 30050
x264 [info]: frame B:108279 Avg QP:21.04 size: 10495
x264 [info]: consecutive B-frames: 2.6% 3.7% 8.4% 18.3% 17.5% 36.9% 6.9% 3.0% 2.9%
x264 [info]: mb I I16..4: 11.4% 68.1% 20.5%
x264 [info]: mb P I16..4: 1.1% 13.0% 1.6% P16..4: 40.8% 22.6% 15.3% 0.5% 0.1% skip: 5.0%
x264 [info]: mb B I16..4: 0.1% 0.9% 0.2% B16..8: 40.2% 13.2% 3.7% direct: 7.5% skip:34.2% L0:44.3% L1:43.7% BI:12.0%
x264 [info]: 8x8 transform intra:79.7% inter:59.7%
x264 [info]: direct mvs spatial:98.6% temporal:1.4%
x264 [info]: coded y,uvDC,uvAC intra: 92.2% 94.3% 85.8% inter: 30.3% 36.9% 24.3%
x264 [info]: i16 v,h,dc,p: 37% 12% 16% 35%
x264 [info]: i8 v,h,dc,ddl,ddr,vr,hd,vl,hu: 11% 10% 8% 9% 13% 12% 13% 11% 13%
x264 [info]: i4 v,h,dc,ddl,ddr,vr,hd,vl,hu: 10% 11% 3% 8% 14% 14% 14% 11% 14%
x264 [info]: i8c dc,h,v,p: 52% 16% 14% 18%
x264 [info]: Weighted P-Frames: Y:6.9% UV:3.9%
x264 [info]: ref P L0: 41.8% 10.9% 19.8% 5.7% 5.7% 3.2% 3.5% 1.5% 1.8% 1.1% 1.3% 0.9% 1.0% 0.7% 0.9% 0.1%
x264 [info]: ref B L0: 65.6% 14.5% 6.3% 3.6% 2.4% 2.1% 1.5% 1.0% 0.7% 0.7% 0.6% 0.6% 0.3% 0.2%
x264 [info]: ref B L1: 91.2% 8.8%
x264 [info]: kb/s:2997.41

Скриншоты

Яндекс.Метрика
Рейтинг@Mail.ru