(Heavy Metal) Battle Beast - Unholy Savior - 2015 [FLAC, image+.cue, lossless]

 

Создавать темы 11-Янв-2015 16:55

-Battle Beast / Unholy Savior-- Год издания: 2015
Страна: Finland
Жанр: Heavy Metal
Продолжительность: 00:47:45-Лейбл издания: Nuclear Blast Rec.
Страна-выпуска диска: Germany
Номер по каталогу: NB 3407-0
Формат: FLAC
Битрейт аудио: lossless
Тип рипа: image+.cue
Наличие сканов в содержимом раздачи: да

Трэклист

01.Lionheart (04:53)
02.Unholy Savior (05:36)
03.I Want The World... And Everything In It (04:37)
04.Madness (04:01)
05.Sea Of Dreams (05:00)
06.Speed And Danger (04:38)
07.Touch In The Night (04:32)
08.The Black Swordsman (01:15)
09.Hero's Quest (02:30)
10.Far Far Away (03:46)
11.Angel Cry (03:33)
12.Push It To The Limit (Bonus Track) (03:19)

Лог создания рипа

Exact Audio Copy V1.0 beta 3 from 29. August 2011
EAC extraction logfile from 9. January 2015, 17:39
Battle Beast / Unholy Savior
Used drive  : HL-DT-STDVD-RAM GH10L   Adapter: 0  ID: 1
Read mode               : Secure
Utilize accurate stream : Yes
Defeat audio cache      : Yes
Make use of C2 pointers : No
Read offset correction                      : 667
Overread into Lead-In and Lead-Out          : No
Fill up missing offset samples with silence : Yes
Delete leading and trailing silent blocks   : No
Null samples used in CRC calculations       : Yes
Used interface                              : Native Win32 interface for Win NT & 2000
Used output format : Internal WAV Routines
Sample format      : 44.100 Hz; 16 Bit; Stereo
TOC of the extracted CD
Track |   Start  |  Length  | Start sector | End sector
---------------------------------------------------------
1  |  0:00.00 |  4:53.07 |         0    |    21981
2  |  4:53.07 |  5:36.17 |     21982    |    47198
3  | 10:29.24 |  4:37.09 |     47199    |    67982
4  | 15:06.33 |  4:01.42 |     67983    |    86099
5  | 19:08.00 |  5:00.72 |     86100    |   108671
6  | 24:08.72 |  4:38.50 |    108672    |   129571
7  | 28:47.47 |  4:32.01 |    129572    |   149972
8  | 33:19.48 |  1:15.02 |    149973    |   155599
9  | 34:34.50 |  2:30.70 |    155600    |   166919
10  | 37:05.45 |  3:46.18 |    166920    |   183887
11  | 40:51.63 |  3:33.66 |    183888    |   199928
12  | 44:25.54 |  3:19.61 |    199929    |   214914
Range status and errors
Selected range
Filename D:\Temp\Battle Beast - Unholy Savior.wav
Peak level 99.9 %
Extraction speed 5.8 X
Range quality 99.9 %
Test CRC 03C308F9
Copy CRC 03C308F9
Copy OK
No errors occurred
AccurateRip summary
Track  1  not present in database
Track  2  not present in database
Track  3  not present in database
Track  4  not present in database
Track  5  not present in database
Track  6  not present in database
Track  7  not present in database
Track  8  not present in database
Track  9  not present in database
Track 10  not present in database
Track 11  not present in database
Track 12  not present in database
None of the tracks are present in the AccurateRip database
End of status report
---- CUETools DB Plugin V2.1.3
[CTDB TOCID: xnt4exROlFxnMvUNrqra1unyg34-] found, Submit result: xnt4exROlFxnMvUNrqra1unyg34- has been confirmed
[c5b4e97f] (2/2) Accurately ripped

Индексная карта (non-compilant .cue)

REM GENRE "Heavy Metal"
REM DATE 2015
REM DISCID 930B310C
REM COMMENT "ExactAudioCopy v1.0b3"
PERFORMER "Battle Beast"
TITLE "Unholy Savior"
CATALOG 0727361340704
FILE "Battle Beast - Unholy Savior.flac" WAVE
TRACK 01 AUDIO
TITLE "Lionheart"
PERFORMER "Battle Beast"
INDEX 01 00:00:00
TRACK 02 AUDIO
TITLE "Unholy Savior"
PERFORMER "Battle Beast"
INDEX 01 04:53:07
TRACK 03 AUDIO
TITLE "I Want The World... And Everything In It"
PERFORMER "Battle Beast"
INDEX 01 10:29:24
TRACK 04 AUDIO
TITLE "Madness"
PERFORMER "Battle Beast"
INDEX 01 15:06:33
TRACK 05 AUDIO
TITLE "Sea Of Dreams"
PERFORMER "Battle Beast"
INDEX 01 19:08:00
TRACK 06 AUDIO
TITLE "Speed And Danger"
PERFORMER "Battle Beast"
INDEX 01 24:08:72
TRACK 07 AUDIO
TITLE "Touch In The Night"
PERFORMER "Battle Beast"
INDEX 01 28:47:47
TRACK 08 AUDIO
TITLE "The Black Swordsman"
PERFORMER "Battle Beast"
INDEX 01 33:19:48
TRACK 09 AUDIO
TITLE "Hero's Quest"
PERFORMER "Battle Beast"
INDEX 01 34:34:50
TRACK 10 AUDIO
TITLE "Far Far Away"
PERFORMER "Battle Beast"
INDEX 01 37:05:45
TRACK 11 AUDIO
TITLE "Angel Cry"
PERFORMER "Battle Beast"
INDEX 01 40:51:63
TRACK 12 AUDIO
TITLE "Push It To The Limit (Bonus Track)"
PERFORMER "Battle Beast"
INDEX 01 44:25:54

Скриншот спектра частот

--Не забываем говорить
Яндекс.Метрика
Рейтинг@Mail.ru