(Chanson) Александр Новиков - ё-альбом - 2013 [FLAC, image+.cue, lossless]

 

Создавать темы 10-Янв-2015 16:43

-Александр Новиков / ё-альбом-- Год издания: 2013
Страна: Россия
Жанр: Chanson
Продолжительность: 00:36:25-Лейбл издания: Мистерия звука
Страна-выпуска диска: Россия
Номер по каталогу: CD-M 199-2/9
Формат: FLAC
Битрейт аудио: lossless
Тип рипа: image+.cue
Наличие сканов в содержимом раздачи: да
-

Трэклист

01.Ё-мобиль (03:05)
02.Коза (03:14)
03.Крокодил (03:36)
04.Ну, какой ты…? (06:00)
05.Бомж с Рублёвки (03:41)
06.Вокзальная медуза (03:50)
07.Два клопа (03:14)
08.Удивительное рядом (2007) (03:04)
09.Я не бывал в Монако (2007) (03:44)
10.Письмо в редакцию (02:51)

Лог создания рипа

Exact Audio Copy V1.0 beta 3 from 29. August 2011
Отчёт EAC об извлечении, выполненном 29. октября 2013, 17:25
Александр Новиков / ё-альбом
Дисковод: ASUS    DRW-1814BLT   Adapter: 3  ID: 0
Режим чтения                 : Достоверность
Использование точного потока : Да
Отключение кэша аудио        : Да
Использование указателей C2  : Нет
Коррекция смещения при чтении                     : 6
Способность читать области Lead-in и Lead-out     : Нет
Заполнение пропущенных сэмплов тишиной            : Да
Удаление блоков с тишиной в начале и конце        : Нет
При вычислениях CRC использовались нулевые сэмплы : Да
Интерфейс                                         : Встроенный Win32-интерфейс для Win NT/2000
Выходной формат : Внутренние WAV-операции
Формат сэмплов  : 44.100 Гц; 16 бит; стерео
TOC извлечённого CD
Трек |   Старт  | Длительность | Начальный сектор | Конечный сектор
---------------------------------------------------------------------
1  |  0:00.00 |    3:05.54   |           0      |      13928
2  |  3:05.54 |    3:14.69   |       13929      |      28547
3  |  6:20.48 |    3:36.48   |       28548      |      44795
4  |  9:57.21 |    6:00.51   |       44796      |      71846
5  | 15:57.72 |    3:41.34   |       71847      |      88455
6  | 19:39.31 |    3:50.16   |       88456      |     105721
7  | 23:29.47 |    3:14.05   |      105722      |     120276
8  | 26:43.52 |    3:04.74   |      120277      |     134150
9  | 29:48.51 |    3:44.62   |      134151      |     151012
10  | 33:33.38 |    2:51.53   |      151013      |     163890
Характеристики диапазона извлечения и сообщения об ошибках
Выбранный диапазон
Имя файла C:\vlad victorovich\2013 - Александр Новиков - ё-альбом\Александр Новиков - ё-альбом.wav
Пиковый уровень 100.0 %
Скорость извлечения 2.6 X
Качество диапазона 99.9 %
CRC теста A0286E80
CRC копии A0286E80
Копирование... OK
Ошибок не произошло
AccurateRip: сводка
Трек  1  отсутствует в базе данных
Трек  2  отсутствует в базе данных
Трек  3  отсутствует в базе данных
Трек  4  отсутствует в базе данных
Трек  5  отсутствует в базе данных
Трек  6  отсутствует в базе данных
Трек  7  отсутствует в базе данных
Трек  8  отсутствует в базе данных
Трек  9  отсутствует в базе данных
Трек 10  отсутствует в базе данных
Ни одного трека нет в базе AccurateRip
Конец отчёта

Индексная карта (non-compilant .cue)

REM GENRE Chanson
REM DATE 2013
REM DISCID 8408890A
REM COMMENT "ExactAudioCopy v1.0b3"
PERFORMER "Александр Новиков"
TITLE "ё-альбом"
FILE "Александр Новиков - ё-альбом.flac" WAVE
TRACK 01 AUDIO
TITLE "Ё-мобиль"
PERFORMER "Александр Новиков"
INDEX 01 00:00:00
TRACK 02 AUDIO
TITLE "Коза"
PERFORMER "Александр Новиков"
INDEX 01 03:05:54
TRACK 03 AUDIO
TITLE "Крокодил"
PERFORMER "Александр Новиков"
INDEX 01 06:20:48
TRACK 04 AUDIO
TITLE "Ну, какой ты…?"
PERFORMER "Александр Новиков"
INDEX 01 09:57:21
TRACK 05 AUDIO
TITLE "Бомж с Рублёвки"
PERFORMER "Александр Новиков"
INDEX 01 15:57:72
TRACK 06 AUDIO
TITLE "Вокзальная медуза"
PERFORMER "Александр Новиков"
INDEX 01 19:39:31
TRACK 07 AUDIO
TITLE "Два клопа"
PERFORMER "Александр Новиков"
INDEX 01 23:29:47
TRACK 08 AUDIO
TITLE "Удивительное рядом (2007)"
PERFORMER "Александр Новиков"
INDEX 01 26:43:52
TRACK 09 AUDIO
TITLE "Я не бывал в Монако (2007)"
PERFORMER "Александр Новиков"
INDEX 01 29:48:51
TRACK 10 AUDIO
TITLE "Письмо в редакцию"
PERFORMER "Александр Новиков"
INDEX 01 33:33:38

Скриншот спектра частот

--Не забываем говорить
Яндекс.Метрика
Рейтинг@Mail.ru