[ Сегодня на трекере фрилич! Идет свободное скачивание без начисления Download ]

(Pop) Jessica Jay - Broken Hearted Woman: Greatest Hits (promo) - 2007, FLAC (tracks), lossless

 

Создавать темы 07-Янв-2015 21:37

-Jessica Jay - Broken Hearted Woman: Greatest Hits (promo)- Жанр: Pop
Страна-производитель диска: Thailand
Год издания: 2007
Издатель (лейбл): Warner Music
Номер по каталогу: 5051442032925
Страна: Italy
Аудиокодек: FLAC (*.flac)
Тип рипа: tracks
Битрейт аудио: lossless
Источник (релизер): en-vogue
Наличие сканов в содержимом раздачи: да-Треклист:
01. Broken Hearted Woman [Radio Edit]
02. Chilly Cha Cha
03. Coco Melon
04. My Macho
05. Can’t Help Falling In Love
06. I Swear
07. The Truth Is…
08. The Room At The Top of The Stairs
09. Casablanca [Jay In The Mix]
10. Flirtatious Heart
11. Smile
12. One More Try
13. I’m Leaving
14. Denpasar Moon
15. Always [Radio Edit]
16. Broken Hearted Woman [Club Mix]

Лог создания рипа

CUERipper v2.1.4 Copyright (C) 2008-12 Grigory Chudov
EAC extraction logfile from 18. February 2013, 0:33
Jessica Jay / Broken Hearted Woman: Greatest Hits
Used drive  : HL-DT-ST DVDRAM GSA-T20N   Adapter: 1  ID: 0
Read mode               : SecureUtilize accurate stream : YesDefeat audio cache      : YesMake use of C2 pointers : No
Read offset correction                      : 667Overread into Lead-In and Lead-Out          : NoFill up missing offset samples with silence : YesDelete leading and trailing silent blocks   : NoNull samples used in CRC calculations       : YesUsed interface                              : Native Win32 interface for Win NT & 2000Gap handling                                : Appended to previous track
Used output format : Internal WAV RoutinesSample format      : 44.100 Hz; 16 Bit; Stereo
TOC of the extracted CD
Track |   Start  |  Length  | Start sector | End sector    ---------------------------------------------------------        1  |  0:00.00 |  3:31.04 |         0    |    15828        2  |  3:31.04 |  4:38.36 |     15829    |    36714        3  |  8:09.40 |  3:53.57 |     36715    |    54246        4  | 12:03.22 |  4:01.11 |     54247    |    72332        5  | 16:04.33 |  3:55.51 |     72333    |    90008        6  | 20:00.09 |  5:34.52 |     90009    |   115110        7  | 25:34.61 |  5:03.28 |    115111    |   137863        8  | 30:38.14 |  4:17.71 |    137864    |   157209        9  | 34:56.10 |  6:20.29 |    157210    |   185738       10  | 41:16.39 |  5:33.62 |    185739    |   210775       11  | 46:50.26 |  5:27.68 |    210776    |   235368       12  | 52:18.19 |  4:43.03 |    235369    |   256596       13  | 57:01.22 |  5:23.39 |    256597    |   280860       14  | 62:24.61 |  5:08.05 |    280861    |   303965       15  | 67:32.66 |  4:53.61 |    303966    |   326001       16  | 72:26.52 |  4:53.57 |    326002    |   348033
Track  1
Filename C:\Users\Администратор\Music\Jessica Jay\2007 - Broken Hearted Woman_ Greatest Hits\01. Broken Hearted Woman [Radio Edit].wav
Pre-gap length  0:00:02.00
Peak level 100.0 %     Track quality 100.0 %     Test CRC 51493F8A     Copy CRC 51493F8A     Track not present in AccurateRip database     Copy OK
Track  2
Filename C:\Users\Администратор\Music\Jessica Jay\2007 - Broken Hearted Woman_ Greatest Hits\02. Chilly Cha Cha.wav
Pre-gap length  0:00:02.00
Peak level 96.6 %     Track quality 100.0 %     Test CRC 0BF355A8     Copy CRC 0BF355A8     Track not present in AccurateRip database     Copy OK
Track  3
Filename C:\Users\Администратор\Music\Jessica Jay\2007 - Broken Hearted Woman_ Greatest Hits\03. Coco Melon.wav
Pre-gap length  0:00:02.00
Peak level 99.8 %     Track quality 100.0 %     Test CRC 5C9E49C5     Copy CRC 5C9E49C5     Track not present in AccurateRip database     Copy OK
Track  4
Filename C:\Users\Администратор\Music\Jessica Jay\2007 - Broken Hearted Woman_ Greatest Hits\04. My Macho.wav
Pre-gap length  0:00:02.00
Peak level 79.4 %     Track quality 100.0 %     Test CRC 83F2EA5C     Copy CRC 83F2EA5C     Track not present in AccurateRip database     Copy OK
Track  5
Filename C:\Users\Администратор\Music\Jessica Jay\2007 - Broken Hearted Woman_ Greatest Hits\05. Can't Help Falling In Love.wav
Pre-gap length  0:00:02.00
Peak level 84.1 %     Track quality 100.0 %     Test CRC 8DDB3405     Copy CRC 8DDB3405     Track not present in AccurateRip database     Copy OK
Track  6
Filename C:\Users\Администратор\Music\Jessica Jay\2007 - Broken Hearted Woman_ Greatest Hits\06. I Swear.wav
Pre-gap length  0:00:02.00
Peak level 100.0 %     Track quality 100.0 %     Test CRC 4E650C5F     Copy CRC 4E650C5F     Track not present in AccurateRip database     Copy OK
Track  7
Filename C:\Users\Администратор\Music\Jessica Jay\2007 - Broken Hearted Woman_ Greatest Hits\07. The Truth Is....wav
Pre-gap length  0:00:02.00
Peak level 94.4 %     Track quality 100.0 %     Test CRC 142C9B5A     Copy CRC 142C9B5A     Track not present in AccurateRip database     Copy OK
Track  8
Filename C:\Users\Администратор\Music\Jessica Jay\2007 - Broken Hearted Woman_ Greatest Hits\08. The Room At The Top of The Stairs.wav
Pre-gap length  0:00:02.00
Peak level 94.4 %     Track quality 100.0 %     Test CRC 77D541A8     Copy CRC 77D541A8     Track not present in AccurateRip database     Copy OK
Track  9
Filename C:\Users\Администратор\Music\Jessica Jay\2007 - Broken Hearted Woman_ Greatest Hits\09. Casablanca [Jay In The Mix].wav
Pre-gap length  0:00:02.00
Peak level 100.0 %     Track quality 100.0 %     Test CRC 4E92AC5B     Copy CRC 4E92AC5B     Track not present in AccurateRip database     Copy OK
Track 10
Filename C:\Users\Администратор\Music\Jessica Jay\2007 - Broken Hearted Woman_ Greatest Hits\10. Flirtatious Heart.wav
Pre-gap length  0:00:02.00
Peak level 100.0 %     Track quality 100.0 %     Test CRC DFA92B53     Copy CRC DFA92B53     Track not present in AccurateRip database     Copy OK
Track 11
Filename C:\Users\Администратор\Music\Jessica Jay\2007 - Broken Hearted Woman_ Greatest Hits\11. Smile.wav
Pre-gap length  0:00:02.00
Peak level 100.0 %     Track quality 100.0 %     Test CRC 79D845DB     Copy CRC 79D845DB     Track not present in AccurateRip database     Copy OK
Track 12
Filename C:\Users\Администратор\Music\Jessica Jay\2007 - Broken Hearted Woman_ Greatest Hits\12. One More Try.wav
Pre-gap length  0:00:02.00
Peak level 100.0 %     Track quality 100.0 %     Test CRC FD4F020E     Copy CRC FD4F020E     Track not present in AccurateRip database     Copy OK
Track 13
Filename C:\Users\Администратор\Music\Jessica Jay\2007 - Broken Hearted Woman_ Greatest Hits\13. I'm Leaving.wav
Pre-gap length  0:00:02.00
Peak level 100.0 %     Track quality 100.0 %     Test CRC 2093B574     Copy CRC 2093B574     Track not present in AccurateRip database     Copy OK
Track 14
Filename C:\Users\Администратор\Music\Jessica Jay\2007 - Broken Hearted Woman_ Greatest Hits\14. Denpasar Moon.wav
Pre-gap length  0:00:02.00
Peak level 100.0 %     Track quality 100.0 %     Test CRC 942AA5F1     Copy CRC 942AA5F1     Track not present in AccurateRip database     Copy OK
Track 15
Filename C:\Users\Администратор\Music\Jessica Jay\2007 - Broken Hearted Woman_ Greatest Hits\15. Always [Radio Edit].wav
Pre-gap length  0:00:02.00
Peak level 99.9 %     Track quality 100.0 %     Test CRC A6ECCBCC     Copy CRC A6ECCBCC     Track not present in AccurateRip database     Copy OK
Track 16
Filename C:\Users\Администратор\Music\Jessica Jay\2007 - Broken Hearted Woman_ Greatest Hits\16. Broken Hearted Woman [Club Mix].wav
Pre-gap length  0:00:02.00
Peak level 89.1 %     Track quality 100.0 %     Test CRC 095AB767     Copy CRC 095AB767     Track not present in AccurateRip database     Copy OK
None of the tracks are present in the AccurateRip database
No errors occurred
End of status report
-
Яндекс.Метрика
Рейтинг@Mail.ru