[ Сегодня на трекере фрилич! Идет свободное скачивание без начисления Download ]

(Pop) Backstreet Boys - 3 Japanese Albums - 1999-2008, FLAC (image+.cue), lossless

 

Создавать темы 07-Янв-2015 18:12

-Backstreet Boys - 3 Japanese Albums- Жанр: Pop
Носитель: CD
Страна-производитель дисков:
Год изданий (альбомов): 1999-2008
Издатель (лейбл): Zomba Recording Corp./BMG
Страна исполнителя (группы):
Аудиокодек: FLAC (*.flac)
Тип рипа: image+.cue
Битрейт аудио: lossless
Продолжительность: 02:49:10
Источник (релизер): serg-82
Наличие сканов в содержимом раздачи: да-

Треклист:

Millenium (Reissue)

Год выхода альбома: 1999
Год выхода диска: 2007
Номер по каталогу: BVCM-37895 (82876-53560-2)
Продолжительность: 00:55:17
Треклист:
01. Larger Than Life [03:53]
02. I Want It That Way [03:33]
03. Show Me The Meaning Of Being Lonely [03:55]
04. It's Gotta Be You [02:57]
05. I Need You Tonight [04:23]
06. Don't Want You Back [03:26]
07. Don't Wanna Lose You Now [03:55]
08. The One [03:47]
09. Back To Your Heart [04:22]
10. Spanish Eyes [03:55]
11. No One Else Comes Close [03:44]
12. The Perfect Fan [04:14]
13. I'll Be There For You [04:34]
14. You Wrote The Book On Love [04:38]

Информация об альбоме

Millennium (с англ. «Тысячелетие») — третий студийный альбом (второй в США) американской группы Backstreet Boys, вышедший в 1999 году. Диск выпущен после американской версии дебютного альбома и второго международного альбома «Backstreet’s Back», став тем самым первым альбомом группы, выпущенным в одной версии и в одно время по всему миру. «Millennium» стал самым продаваемым альбомом 1999 года с продажами 9 445 732 экземпляра. Диск получил 5 номинаций на премию Грэмми, включая «Альбом года».
Millennium побил многочисленные рекорды, тем самым став самым успешным альбомом группы. «Millennium» становился платиновым в США тринадцать раз и получил золотой и платиновый статус в 45 странах мира. Он получил 5 номинаций на премию Грэмми, включая «Альбом года» и занимает восьмое место в списке самых продаваемых альбомов в мире. Всего по всему миру было продано более 40 млн экземпляров альбома.
В день релиза альбома, 18 мая 1999 года, группа совершила визит на программу MTV Total Request Live. Около 30 тысяч поклонников собрались у студии на Таймс-сквер, перекрыв движение автотранспорта. Альбом стартовал в чарте Billboard 200 на первом месте и оставался там в течение десяти недель. В первую неделю после релиза альбом побил рекорды продаж (1 134 000 экземпляров). За первый день продаж только в США альбом разошёлся в количестве почти 500 тысяч экземпляров, поставив тем самым рекорд.
«Millennium» стал самым продаваемым альбомом 1999 года с продажами 9 445 732 экземпляра. Альбом получил 5 номинаций на премию Грэмми, включая «Альбом года». Он доминировал в мировых чартах, оказавшись на первом месте в Австрии, Бельгии, Дании, Германии, Греции, Гонконге, Голландии, Индии, Индонезии, Исландии, Испании, Италии, Канаде, Корее, Малайзии, Мехико, Новой Зеландии, Норвегии, Португалии, Сингапуре, Тайвани, Таиланде, Филиппинах, Швейцарии и Швеции.
Источник: ВикипедиЯ

Лог создания рипа

Exact Audio Copy V1.0 beta 3 from 29. August 2011
Отчёт EAC об извлечении, выполненном 7. января 2015, 2:58
Backstreet Boys / Millennium (Japan)
Дисковод: TSSTcorpCDDVDW TS-L632H Adapter: 1 ID: 0
Режим чтения : Достоверность
Использование точного потока : Да
Отключение кэша аудио : Да
Использование указателей C2 : Нет
Коррекция смещения при чтении : 6
Способность читать области Lead-in и Lead-out : Нет
Заполнение пропущенных сэмплов тишиной : Да
Удаление блоков с тишиной в начале и конце : Нет
При вычислениях CRC использовались нулевые сэмплы : Да
Интерфейс : Встроенный Win32-интерфейс для Win NT/2000
Выходной формат : Пользовательский кодировщик
Выбранный битрейт : 128 kBit/s
Качество : Высокий
Добавление ID3-тега : Нет
Утилита сжатия : C:\Program Files\Exact Audio Copy\Flac\flac.exe
Дополнительные параметры : -V -8 -T "Date=%year%" -T "Genre=%genre%" %source%
TOC извлечённого CD
Трек | Старт | Длительность | Начальный сектор | Конечный сектор
---------------------------------------------------------------------
1 | 0:00.00 | 3:52.60 | 0 | 17459
2 | 3:52.60 | 3:33.25 | 17460 | 33459
3 | 7:26.10 | 3:54.70 | 33460 | 51079
4 | 11:21.05 | 2:57.25 | 51080 | 64379
5 | 14:18.30 | 4:23.25 | 64380 | 84129
6 | 18:41.55 | 3:26.35 | 84130 | 99614
7 | 22:08.15 | 3:55.15 | 99615 | 117254
8 | 26:03.30 | 3:46.70 | 117255 | 134274
9 | 29:50.25 | 4:21.40 | 134275 | 153889
10 | 34:11.65 | 3:55.10 | 153890 | 171524
11 | 38:07.00 | 3:43.60 | 171525 | 188309
12 | 41:50.60 | 4:14.15 | 188310 | 207374
13 | 46:05.00 | 4:34.05 | 207375 | 227929
14 | 50:39.05 | 4:38.25 | 227930 | 248804
Характеристики диапазона извлечения и сообщения об ошибках
Выбранный диапазон
Имя файла C:\My Rips\Audio\Backstreet Boys - Millennium (Japan) (2007)\Backstreet Boys - Millennium (Japan).wav
Пиковый уровень 100.0 %
Скорость извлечения 4.1 X
Качество диапазона 100.0 %
CRC теста 9E995C21
CRC копии 9E995C21
Копирование... OK
Ошибок не произошло
AccurateRip: сводка
Трек 1 отсутствует в базе данных
Трек 2 отсутствует в базе данных
Трек 3 отсутствует в базе данных
Трек 4 отсутствует в базе данных
Трек 5 отсутствует в базе данных
Трек 6 отсутствует в базе данных
Трек 7 отсутствует в базе данных
Трек 8 отсутствует в базе данных
Трек 9 отсутствует в базе данных
Трек 10 отсутствует в базе данных
Трек 11 отсутствует в базе данных
Трек 12 отсутствует в базе данных
Трек 13 отсутствует в базе данных
Трек 14 отсутствует в базе данных
Ни одного трека нет в базе AccurateRip
Конец отчёта
==== Контрольная сумма отчёта F8D0B95EA08B9AC7FA2637B6573F7954030429D3220D439E1B66A1C3CA8CF42E ====

Black & Blue (Reissue)

Год выхода альбома: 2000
Год выхода диска: 2007
Номер по каталогу: BVCM-37896 (922117-2)
Продолжительность: 00:55:26
Треклист:
01. The Call [03:24]
02. Shape Of My Heart [03:50]
03. Get Another Boyfriend [03:06]
04. Shining Star [03:23]
05. I Promise You (With Everything I Am) [04:23]
06. The Answer To Our Life [03:17]
07. Everyone [03:30]
08. More Than That [03:44]
09. Time [03:55]
10. Not For Me [03:15]
11. Yes I Will [03:50]
12. It's True [04:13]
13. What Makes You Different (Makes You Beautiful) [03:34]
14. How Did I Fall In Love With You [04:04]
15. All I Have To Give (Acappella) [03:48]

Информация об альбоме

Black & Blue (с англ. Черный и синий) — четвёртый студийный альбом (третий в США) группы Backstreet Boys, вышедший в 2000 году. «Black & Blue» был распродан по всему миру в количестве 5 млн экземпляров в первою неделю продаж, но оставался на вершине чартов только 2 недели. Всего продажи альбома составляют 24 млн экземпляров. Диск получил статус платинового более чем в 30 странах, и золотой статус в десяти. Первый сингл с альбома, «Shape of my heart» оказался в первую неделю продаж на первом месте в хит-парадах Австрии, Голландии, Германии, Канады, Норвегии, Швейцарии, Швеции.
Из 13 композиций альбома 2 были написаны самими участниками группы, а 6 песен в соавторстве с ними.
Идею названия альбома подал Брайан Литтрелл во время фотосъёмки в Лос-Анджелесе, где участники группы были одеты в чёрное на синем фоне. В поддержку альбома было решено отправиться в тур «Вокруг света за 100 часов» — Backstreet Boys дали концерты в таких странах как Швеция, Япония, Австралия, ЮАР, Бразилия и США. 55 часов были потрачены на путешествия, 45 — на выступления.
Источник: ВикипедиЯ

Лог создания рипа

Exact Audio Copy V1.0 beta 3 from 29. August 2011
Отчёт EAC об извлечении, выполненном 7. января 2015, 13:00
Backstreet Boys / Black & Blue (Japan)
Дисковод: TSSTcorpCDDVDW TS-L632H Adapter: 1 ID: 0
Режим чтения : Достоверность
Использование точного потока : Да
Отключение кэша аудио : Да
Использование указателей C2 : Нет
Коррекция смещения при чтении : 6
Способность читать области Lead-in и Lead-out : Нет
Заполнение пропущенных сэмплов тишиной : Да
Удаление блоков с тишиной в начале и конце : Нет
При вычислениях CRC использовались нулевые сэмплы : Да
Интерфейс : Встроенный Win32-интерфейс для Win NT/2000
Выходной формат : Пользовательский кодировщик
Выбранный битрейт : 128 kBit/s
Качество : Высокий
Добавление ID3-тега : Нет
Утилита сжатия : C:\Program Files\Exact Audio Copy\Flac\flac.exe
Дополнительные параметры : -V -8 -T "Date=%year%" -T "Genre=%genre%" %source%
TOC извлечённого CD
Трек | Старт | Длительность | Начальный сектор | Конечный сектор
---------------------------------------------------------------------
1 | 0:00.00 | 3:24.35 | 0 | 15334
2 | 3:24.35 | 3:50.05 | 15335 | 32589
3 | 7:14.40 | 3:06.07 | 32590 | 46546
4 | 10:20.47 | 3:24.18 | 46547 | 61864
5 | 13:44.65 | 4:22.42 | 61865 | 81556
6 | 18:07.32 | 3:17.30 | 81557 | 96361
7 | 21:24.62 | 3:31.05 | 96362 | 112191
8 | 24:55.67 | 3:44.38 | 112192 | 129029
9 | 28:40.30 | 3:56.40 | 129030 | 146769
10 | 32:36.70 | 3:15.17 | 146770 | 161411
11 | 35:52.12 | 3:50.35 | 161412 | 178696
12 | 39:42.47 | 4:14.38 | 178697 | 197784
13 | 43:57.10 | 3:35.17 | 197785 | 213926
14 | 47:32.27 | 4:05.48 | 213927 | 232349
15 | 51:38.00 | 3:48.25 | 232350 | 249474
Характеристики диапазона извлечения и сообщения об ошибках
Выбранный диапазон
Имя файла C:\My Rips\Audio\Backstreet Boys - Black & Blue (Japan) (2007)\Backstreet Boys - Black & Blue (Japan).wav
Пиковый уровень 100.0 %
Скорость извлечения 4.1 X
Качество диапазона 99.9 %
CRC теста 7A60111F
CRC копии 7A60111F
Копирование... OK
Ошибок не произошло
AccurateRip: сводка
Трек 1 : извлечено точно (доверие 2) [A8C3C069] (AR v2)
Трек 2 : извлечено точно (доверие 2) [1D9F6911] (AR v2)
Трек 3 : извлечено точно (доверие 2) [0A1DE5BB] (AR v2)
Трек 4 : извлечено точно (доверие 2) [57F26EF2] (AR v2)
Трек 5 : извлечено точно (доверие 2) [0D25E819] (AR v2)
Трек 6 : извлечено точно (доверие 2) [DB1A4F0A] (AR v2)
Трек 7 : извлечено точно (доверие 2) [3E0C09AF] (AR v2)
Трек 8 : извлечено точно (доверие 2) [2F6D397E] (AR v2)
Трек 9 : извлечено точно (доверие 2) [61DA8BFC] (AR v2)
Трек 10 : извлечено точно (доверие 2) [C86AE2F6] (AR v2)
Трек 11 : извлечено точно (доверие 2) [0B1C53DD] (AR v2)
Трек 12 : извлечено точно (доверие 2) [3038D361] (AR v2)
Трек 13 : извлечено точно (доверие 2) [5F56EA23] (AR v2)
Трек 14 : извлечено точно (доверие 2) [DF812D7E] (AR v2)
Трек 15 : извлечено точно (доверие 2) [B39FF937] (AR v2)
Все треки извлечены точно
Конец отчёта
==== Контрольная сумма отчёта 897106E34F720BEF2D70B12D5A55391FDDF43BD8DAB5DFA2A84BCA882DA5BD35 ====

Never Gone (Reissue)

Год выхода альбома: 2005
Год выхода диска: 2008
Номер по каталогу: BVCM-35473 (82876-69705-2)
Продолжительность: 00:58:27
Треклист:
01. Incomplete [03:60]
02. Just Want You To Know [03:51]
03. Crawling Back To You [03:44]
04. Weird World [04:12]
05. I Still... [03:49]
06. Poster Girl [03:55]
07. Lose It All [04:05]
08. Climbing The Walls [03:42]
09. My Beautiful Woman [03:38]
10. Safest Place To Hide [04:39]
11. Siberia [04:16]
12. Never Gone [03:46]
13. Song For The Unloved [03:39]
14. Rush Over Me [03:28]
15. Movin' On [03:32]

Информация об альбоме

«Never Gone» (с англ. Всегда рядом) — пятый студийный альбом (четвёртый в США) американской группы Backstreet Boys. Название позаимствовано у одноименной песни на альбоме, написанной участником группы Кевином Ричардсоном о смерти отца. В отличие от предыдущих альбомов, оформленных в стиле данс-поп, этот альбом сделан в стиле поп-рок, за что был оценён неожиданно-негативно.
Альбом дебютировал в американском чарте Billboard 200 под номером 3 и разошёлся тиражом 293 тыс. экземпляров за первую неделю. «Never Gone» стартовал на первом месте в хит-парадах Бразилии, Германии, Индии, Пакистана, Чили, Южной Кореи, Японии. В США альбом стал платиновым с продажами 1 100 000 экземпляров. Его продажи по всему миру составляют около 10 млн. экземпляров. Мировой тур в поддержку альбома начался в июле 2005 года с города Уэст Палм Бич, Флорида.
Источник: ВикипедиЯ

Лог создания рипа

Exact Audio Copy V1.0 beta 3 from 29. August 2011
Отчёт EAC об извлечении, выполненном 7. января 2015, 15:33
Backstreet Boys / Never Gone (Japan)
Дисковод: TSSTcorpCDDVDW TS-L632H Adapter: 1 ID: 0
Режим чтения : Достоверность
Использование точного потока : Да
Отключение кэша аудио : Да
Использование указателей C2 : Нет
Коррекция смещения при чтении : 6
Способность читать области Lead-in и Lead-out : Нет
Заполнение пропущенных сэмплов тишиной : Да
Удаление блоков с тишиной в начале и конце : Нет
При вычислениях CRC использовались нулевые сэмплы : Да
Интерфейс : Встроенный Win32-интерфейс для Win NT/2000
Выходной формат : Пользовательский кодировщик
Выбранный битрейт : 128 kBit/s
Качество : Высокий
Добавление ID3-тега : Нет
Утилита сжатия : C:\Program Files\Exact Audio Copy\Flac\flac.exe
Дополнительные параметры : -V -8 -T "Date=%year%" -T "Genre=%genre%" %source%
TOC извлечённого CD
Трек | Старт | Длительность | Начальный сектор | Конечный сектор
---------------------------------------------------------------------
1 | 0:00.00 | 3:59.44 | 0 | 17968
2 | 3:59.44 | 3:53.33 | 17969 | 35476
3 | 7:53.02 | 3:44.06 | 35477 | 52282
4 | 11:37.08 | 4:12.45 | 52283 | 71227
5 | 15:49.53 | 3:49.38 | 71228 | 88440
6 | 19:39.16 | 3:56.05 | 88441 | 106145
7 | 23:35.21 | 4:04.64 | 106146 | 124509
8 | 27:40.10 | 3:43.05 | 124510 | 141239
9 | 31:23.15 | 3:38.32 | 141240 | 157621
10 | 35:01.47 | 4:40.20 | 157622 | 178641
11 | 39:41.67 | 4:17.58 | 178642 | 197974
12 | 43:59.50 | 3:46.47 | 197975 | 214971
13 | 47:46.22 | 3:40.28 | 214972 | 231499
14 | 51:26.50 | 3:29.07 | 231500 | 247181
15 | 54:55.57 | 3:31.55 | 247182 | 263061
Характеристики диапазона извлечения и сообщения об ошибках
Выбранный диапазон
Имя файла C:\My Rips\Audio\Backstreet Boys - Never Gone (Japan) (2008)\Backstreet Boys - Never Gone (Japan).wav
Пиковый уровень 99.8 %
Скорость извлечения 4.1 X
Качество диапазона 100.0 %
CRC теста 264BF50A
CRC копии 264BF50A
Копирование... OK
Ошибок не произошло
AccurateRip: сводка
Трек 1 отсутствует в базе данных
Трек 2 отсутствует в базе данных
Трек 3 отсутствует в базе данных
Трек 4 отсутствует в базе данных
Трек 5 отсутствует в базе данных
Трек 6 отсутствует в базе данных
Трек 7 отсутствует в базе данных
Трек 8 отсутствует в базе данных
Трек 9 отсутствует в базе данных
Трек 10 отсутствует в базе данных
Трек 11 отсутствует в базе данных
Трек 12 отсутствует в базе данных
Трек 13 отсутствует в базе данных
Трек 14 отсутствует в базе данных
Трек 15 отсутствует в базе данных
Ни одного трека нет в базе AccurateRip
Конец отчёта
==== Контрольная сумма отчёта B929D3A653E3020B12B9D28B6C86FF730B64A175A72F6672CF2A16A3D5435E90 ====
-
Яндекс.Метрика
Рейтинг@Mail.ru