[ Сегодня на трекере фрилич! Идет свободное скачивание без начисления Download ]

(Шансон) [CDR] Олег Безъязыков - Старый двор - 2015, FLAC (image+.cue), lossless

 

Создавать темы 07-Янв-2015 17:22

-Олег Безъязыков - Старый двор- Жанр: Шансон
Носитель: CDR
Страна-производитель диска (релиза): Россия
Год издания: 2015
Страна исполнителя (группы): Россия
Аудиокодек: FLAC (*.flac)
Тип рипа: image+.cue
Битрейт аудио: lossless
Продолжительность: 00:47:50
Источник (релизер): KEN-KIRILLOV
Наличие сканов в содержимом раздачи: да-Треклист:
01. И вновь открылись... (04:44)
02. Наша весна (03:42)
03. Журавли (04:00)
04. Остров (05:05)
05. За волю! (05:22)
06. Горьковское шоссе (05:22)
07. С рождением сына! (03:54)
08. Домой (05:50)
09. Осень рыжая (05:12)
10. Старый двор (04:36)

EAC

Exact Audio Copy V1.0 beta 3 from 29. August 2011
Отчёт EAC об извлечении, выполненном 4. января 2015, 17:00
Олег Безъязыков / Старый двор
Дисковод: Optiarc DVD RW AD-5200S   Adapter: 1  ID: 1
Режим чтения                 : ДостоверностьИспользование точного потока : ДаОтключение кэша аудио        : ДаИспользование указателей C2  : Нет
Коррекция смещения при чтении                     : 48Способность читать области Lead-in и Lead-out     : НетЗаполнение пропущенных сэмплов тишиной            : ДаУдаление блоков с тишиной в начале и конце        : НетПри вычислениях CRC использовались нулевые сэмплы : ДаИнтерфейс                                         : Установленный внешний ASPI-интерфейс
Выходной формат          : Пользовательский кодировщикВыбранный битрейт        : 896 kBit/sКачество                 : ВысокийДобавление ID3-тега      : НетУтилита сжатия           : E:\Portable Exact Audio Copy 1.0 beta 3 RUS\App\EAC\FLAC\flac.exeДополнительные параметры : -V -8 %source%
TOC извлечённого CD
Трек |   Старт  | Длительность | Начальный сектор | Конечный сектор    ---------------------------------------------------------------------       1  |  0:00.00 |    4:44.00   |           0      |      21299       2  |  4:44.00 |    3:42.00   |       21300      |      37949       3  |  8:26.00 |    4:00.46   |       37950      |      55995       4  | 12:26.46 |    5:05.56   |       55996      |      78926       5  | 17:32.27 |    5:22.18   |       78927      |     103094       6  | 22:54.45 |    5:22.18   |      103095      |     127262       7  | 28:16.63 |    3:54.00   |      127263      |     144812       8  | 32:10.63 |    5:50.00   |      144813      |     171062       9  | 38:00.63 |    5:12.56   |      171063      |     194518      10  | 43:13.44 |    4:36.09   |      194519      |     215227
Характеристики диапазона извлечения и сообщения об ошибках
Выбранный диапазон
Имя файла C:\Documents and Settings\KEN-KIRILLOV.MICROSOF-B2587A\Рабочий стол\Безъязыков Олег 2015 - Старый двор\flac\Олег Безъязыков - Старый двор.wav
Пиковый уровень 97.7 %     Скорость извлечения 4.0 X     Качество диапазона 100.0 %     CRC теста CA46C1E7     CRC копии CA46C1E7     Копирование... OK
Ошибок не произошло
AccurateRip: сводка
Трек  1  отсутствует в базе данныхТрек  2  отсутствует в базе данныхТрек  3  отсутствует в базе данныхТрек  4  отсутствует в базе данныхТрек  5  отсутствует в базе данныхТрек  6  отсутствует в базе данныхТрек  7  отсутствует в базе данныхТрек  8  отсутствует в базе данныхТрек  9  отсутствует в базе данныхТрек 10  отсутствует в базе данных
Ни одного трека нет в базе AccurateRip
Конец отчёта
==== Контрольная сумма отчёта A2B4FEF69CCED838B274DDB83C961915B68BA823E91459AD5F0713FA1F6AE632 ====
-
Яндекс.Метрика
Рейтинг@Mail.ru