Состояние сердца / Heart Condition (Джеймс Д. Пэрриотт / James D. Parriott) [1989 г., фэнтези, боевик, драма, комедия, DVDRip-AVC] AVO (Алексей Михалёв) + original (Eng)

 

Создавать темы 06-Янв-2015 06:20

Состояние сердца / Heart Condition
Год выпуска: 1989
Производство: США
Жанр: фэнтези, боевик, драма, комедия
Продолжительность: 01:40:09
Перевод: Авторский (одноголосый, закадровый) Алексей Михалёв
Оригинальный аудиопоток: английский
Субтитры: отсутствуют
Режиссер: Джеймс Д. Пэрриотт / James D. Parriott
В ролях: Боб Хоскинс, Дензел Вашингтон, Хлои Уэбб, Роджер И. Мосли, Жанет Дюбуа, Алан Рэчинс, Рэй Бэйкер, Джеффри Мик, Ева Ла Ру, Киран Малруни
Описание: Лос-анджелесский полицейский Джек Муни — расист по убеждению. Можете представить его недовольство, когда он, придя в себя после трансплантационной операции узнает, что ему пересажено сердце негра. И не простого негра, а личного врага Джека — погибшего накануне адвоката, связанного с преступным миром. И можете представить бешенство Джека, когда негр начинает «доставать» его даже после своей смерти, являясь к полицейскому в качестве призрака.
, КиноПоиск
Качество видео: DVDRip-AVC
Контейнер: MKV
Видео кодек: H.264
Аудио кодек: AC3
Видео: 720x384, 23.976fps, 2298Kbps, 0.347 bt/px
Аудио : AC-3, 448 Kbps, 6 ch, 48.0 KHz Rus Михалёв
Аудио : AC-3, 448 Kbps, 6 ch, 48.0 KHz Eng Original

Media Info

G:\загрузки\Heart_Condition_[Pirat.ca].torrent.mkv
General
Unique ID : 253449355712687349050044488491571707153 (0xBEAC9202CD96ECE997530A2C61617D11)
Complete name : G:\загрузки\Heart_Condition_[Pirat.ca].torrent.mkv
Format : Matroska
Format version : Version 1
File size : 2.22 GiB
Duration : 1h 40mn
Overall bit rate : 3 178 Kbps
Encoded date : UTC 2015-01-05 21:25:03
Writing application : mkvmerge v2.5.3 ('Boogie') built on Mar 7 2009 15:00:41
Writing library : libebml v0.7.7 + libmatroska v0.8.1
Video #1
ID : 1
Format : AVC
Format/Info : Advanced Video Codec
Format profile : [email protected]
Format settings, CABAC : Yes
Format settings, ReFrames : 9 frames
Codec ID : V_MPEG4/ISO/AVC
Duration : 1h 40mn
Bit rate : 2 298 Kbps
Width : 720 pixels
Height : 384 pixels
Display aspect ratio : 1.85:1
Frame rate mode : Constant
Frame rate : 23.976 fps
Color space : YUV
Chroma subsampling : 4:2:0
Bit depth : 8 bits
Scan type : Progressive
Bits/(Pixel*Frame) : 0.347
Stream size : 1.55 GiB (70%)
Writing library : x264 core 130 r2273 b3065e6
Encoding settings : cabac=1 / ref=9 / deblock=1:0:0 / analyse=0x3:0x133 / me=umh / subme=11 / psy=1 / psy_rd=1.00:0.10 / mixed_ref=1 / me_range=24 / chroma_me=1 / trellis=2 / 8x8dct=1 / cqm=0 / deadzone=21,11 / fast_pskip=0 / chroma_qp_offset=-3 / threads=4 / lookahead_threads=4 / sliced_threads=0 / nr=0 / decimate=0 / interlaced=0 / bluray_compat=0 / constrained_intra=0 / bframes=8 / b_pyramid=2 / b_adapt=2 / b_bias=0 / direct=1 / weightb=1 / open_gop=0 / weightp=2 / keyint=250 / keyint_min=23 / scenecut=40 / intra_refresh=0 / rc_lookahead=40 / rc=abr / mbtree=1 / bitrate=2298 / ratetol=1.0 / qcomp=0.60 / qpmin=0 / qpmax=69 / qpstep=4 / ip_ratio=1.40 / aq=1:1.00
Language : English
Default : Yes
Forced : No
Audio #2
ID : 2
Format : AC-3
Format/Info : Audio Coding 3
Mode extension : CM (complete main)
Format settings, Endianness : Big
Codec ID : A_AC3
Duration : 1h 40mn
Bit rate mode : Constant
Bit rate : 448 Kbps
Channel(s) : 6 channels
Channel positions : Front: L C R, Side: L R, LFE
Sampling rate : 48.0 KHz
Bit depth : 16 bits
Compression mode : Lossy
Stream size : 321 MiB (14%)
Title : AVO Михалёв
Language : Russian
Default : Yes
Forced : No
Audio #3
ID : 3
Format : AC-3
Format/Info : Audio Coding 3
Mode extension : CM (complete main)
Format settings, Endianness : Big
Codec ID : A_AC3
Duration : 1h 40mn
Bit rate mode : Constant
Bit rate : 448 Kbps
Channel(s) : 6 channels
Channel positions : Front: L C R, Side: L R, LFE
Sampling rate : 48.0 KHz
Bit depth : 16 bits
Compression mode : Lossy
Stream size : 321 MiB (14%)
Language : English
Default : No
Forced : No

Скриншоты

Яндекс.Метрика
Рейтинг@Mail.ru