[ Сегодня на трекере фрилич! Идет свободное скачивание без начисления Download ]

Tina Turner - Love Songs (2014) [FLAC|Lossless]<Pop, Soul>

 

Создавать темы 05-Янв-2015 20:08

-Tina Turner - Love Songs (2014)- Лейбл: Parlophone
Каталог: 2564633791
Год: 2014
Жанр: Pop, Soul
Продолжительность: 01:14:24
Кодек: FLAC (tracks+ .cue)
Битрейт: Lossless
Треклист:
01. The Best
02. I Dont Wanna Lose You
03. Lets Stay Together
04. Whats Love Got To Do With It
05. Missing You
06. Private Dancer
07. Two People
08. Look Me In The Heart
09. Way Of The World
10. Why Must We Wait Until Tonight
11. Falling
12. I Want You Near Me
13. Be Tender With Me Baby
14. Don't Leave Me This Way
15. I Don't Wanna Fight
16. Whatever You Need
17. When The Heartache Is Over
18. River Deep, Mountain High (ft. Ike)

Отчёт ЕАС&#58;

Exact Audio Copy V1.0 beta 3 from 29. August 2011
EAC extraction logfile from 28. March 2014, 18:20
Tina Turner / Love Songs
Used drive  : ATAPI   DVD A  DH16AASH   Adapter: 1  ID: 1
Read mode               : Secure
Utilize accurate stream : Yes
Defeat audio cache      : Yes
Make use of C2 pointers : No
Read offset correction                      : 6
Overread into Lead-In and Lead-Out          : No
Fill up missing offset samples with silence : Yes
Delete leading and trailing silent blocks   : No
Null samples used in CRC calculations       : Yes
Used interface                              : Native Win32 interface for Win NT & 2000
Gap handling                                : Appended to previous track
Used output format              : User Defined Encoder
Selected bitrate                : 1024 kBit/s
Quality                         : High
Add ID3 tag                     : No
Command line compressor         : C:\Program Files (x86)\FLAC\flac.exe
Additional command line options : -8 -V -T "ARTIST=%artist%" -T "TITLE=%title%" -T "ALBUM=%albumtitle%" -T "DATE=%year%" -T "TRACKNUMBER=%tracknr%" -T "GENRE=%genre%" -T "PERFORMER=%albuminterpret%" -T "COMPOSER=%composer%" %haslyrics%--tag-from-file=LYRICS="%lyricsfile%"%haslyrics% -T "ALBUMARTIST=%albumartist%" -T "ALBUM ARTIST=%albumartist%" -T "DISCNUMBER=%cdnumber%" -T "TOTALDISCS=%totalcds%" -T "TOTALTRACKS=%numtracks%" -T "COMMENT=EAC V1.0 beta 2, Secure Mode, Test & Copy, AccurateRip, FLAC -8" %source% -o %dest%
TOC of the extracted CD
     Track |   Start  |  Length  | Start sector | End sector
    ---------------------------------------------------------
        1  |  0:00.00 |  4:07.70 |         0    |    18594
        2  |  4:07.70 |  4:19.09 |     18595    |    38028
        3  |  8:27.04 |  3:36.02 |     38029    |    54230
        4  | 12:03.06 |  3:50.28 |     54231    |    71508
        5  | 15:53.34 |  4:03.02 |     71509    |    89735
        6  | 19:56.36 |  4:05.09 |     89736    |   108119
        7  | 24:01.45 |  4:10.64 |    108120    |   126933
        8  | 28:12.34 |  3:42.33 |    126934    |   143616
        9  | 31:54.67 |  4:25.68 |    143617    |   163559
       10  | 36:20.60 |  4:30.25 |    163560    |   183834
       11  | 40:51.10 |  4:22.29 |    183835    |   203513
       12  | 45:13.39 |  3:53.30 |    203514    |   221018
       13  | 49:06.69 |  4:18.18 |    221019    |   240386
       14  | 53:25.12 |  4:20.29 |    240387    |   259915
       15  | 57:45.41 |  4:25.69 |    259916    |   279859
       16  | 62:11.35 |  4:48.55 |    279860    |   301514
       17  | 67:00.15 |  3:44.54 |    301515    |   318368
       18  | 70:44.69 |  3:39.05 |    318369    |   334798
Track  1
     Filename F:\Converted Flac\01 The Best.wav
     Pre-gap length  0:00:02.00
     Peak level 98.0 %
     Extraction speed 3.4 X
     Track quality 100.0 %
     Test CRC FD3ACA3A
     Copy CRC FD3ACA3A
     Accurately ripped (confidence 1)  [139F195C]  (AR v2)
     Copy OK
Track  2
     Filename F:\Converted Flac\02 I Don't Wanna Lose You.wav
     Pre-gap length  0:00:00.90
     Peak level 99.8 %
     Extraction speed 3.7 X
     Track quality 100.0 %
     Test CRC C9F6E70D
     Copy CRC C9F6E70D
     Accurately ripped (confidence 1)  [902B10A9]  (AR v2)
     Copy OK
Track  3
     Filename F:\Converted Flac\03 Let's Stay Together.wav
     Pre-gap length  0:00:00.29
     Peak level 85.4 %
     Extraction speed 3.9 X
     Track quality 100.0 %
     Test CRC ADCEA9EB
     Copy CRC ADCEA9EB
     Accurately ripped (confidence 1)  [82336EE0]  (AR v2)
     Copy OK
Track  4
     Filename F:\Converted Flac\04 What's Love Got To Do With It.wav
     Pre-gap length  0:00:00.49
     Peak level 79.4 %
     Extraction speed 3.3 X
     Track quality 99.9 %
     Test CRC C72DD48C
     Copy CRC C72DD48C
     Accurately ripped (confidence 1)  [0B954926]  (AR v2)
     Copy OK
Track  5
     Filename F:\Converted Flac\05 Missing You.wav
     Pre-gap length  0:00:00.24
     Peak level 87.4 %
     Extraction speed 3.4 X
     Track quality 99.9 %
     Test CRC 48990EA5
     Copy CRC 48990EA5
     Accurately ripped (confidence 1)  [31F6266A]  (AR v2)
     Copy OK
Track  6
     Filename F:\Converted Flac\06 Private Dancer.wav
     Pre-gap length  0:00:00.96
     Peak level 98.0 %
     Extraction speed 4.6 X
     Track quality 100.0 %
     Test CRC C931C8EE
     Copy CRC C931C8EE
     Accurately ripped (confidence 1)  [8A205F2A]  (AR v2)
     Copy OK
Track  7
     Filename F:\Converted Flac\07 Two People.wav
     Pre-gap length  0:00:02.42
     Peak level 99.2 %
     Extraction speed 4.8 X
     Track quality 100.0 %
     Test CRC A735670D
     Copy CRC A735670D
     Accurately ripped (confidence 1)  [5B66639B]  (AR v2)
     Copy OK
Track  8
     Filename F:\Converted Flac\08 Look Me In The Heart.wav
     Pre-gap length  0:00:01.29
     Peak level 87.4 %
     Extraction speed 4.0 X
     Track quality 99.9 %
     Test CRC AA7992FF
     Copy CRC AA7992FF
     Accurately ripped (confidence 1)  [8E7DC009]  (AR v2)
     Copy OK
Track  9
     Filename F:\Converted Flac\09 Way Of The World.wav
     Pre-gap length  0:00:01.52
     Peak level 89.0 %
     Extraction speed 4.3 X
     Track quality 99.9 %
     Test CRC E0D756CF
     Copy CRC E0D756CF
     Accurately ripped (confidence 1)  [078E510C]  (AR v2)
     Copy OK
Track 10
     Filename F:\Converted Flac\10 Why Must We Wait Until Tonight.wav
     Pre-gap length  0:00:01.94
     Peak level 87.6 %
     Extraction speed 5.4 X
     Track quality 100.0 %
     Test CRC 987BAC69
     Copy CRC 987BAC69
     Accurately ripped (confidence 1)  [748A2FC6]  (AR v2)
     Copy OK
Track 11
     Filename F:\Converted Flac\11 Falling.wav
     Pre-gap length  0:00:02.02
     Peak level 87.4 %
     Extraction speed 5.5 X
     Track quality 100.0 %
     Test CRC 7AFCB184
     Copy CRC 7AFCB184
     Accurately ripped (confidence 1)  [C2AB9575]  (AR v2)
     Copy OK
Track 12
     Filename F:\Converted Flac\12 I Want You Near Me.wav
     Pre-gap length  0:00:02.01
     Peak level 73.4 %
     Extraction speed 4.5 X
     Track quality 99.9 %
     Test CRC D75D4E0B
     Copy CRC D75D4E0B
     Accurately ripped (confidence 1)  [F665252D]  (AR v2)
     Copy OK
Track 13
     Filename F:\Converted Flac\13 Be Tender With Me Baby.wav
     Pre-gap length  0:00:01.53
     Peak level 98.4 %
     Extraction speed 5.8 X
     Track quality 100.0 %
     Test CRC 38A8AA1D
     Copy CRC 38A8AA1D
     Accurately ripped (confidence 1)  [35536D88]  (AR v2)
     Copy OK
Track 14
     Filename F:\Converted Flac\14 Don't Leave Me This Way.wav
     Pre-gap length  0:00:01.08
     Peak level 98.0 %
     Extraction speed 5.9 X
     Track quality 100.0 %
     Test CRC C5FF4E9F
     Copy CRC C5FF4E9F
     Accurately ripped (confidence 1)  [237DDC0D]  (AR v2)
     Copy OK
Track 15
     Filename F:\Converted Flac\15 I Don't Wanna Fight.wav
     Pre-gap length  0:00:02.14
     Peak level 98.4 %
     Extraction speed 5.0 X
     Track quality 99.9 %
     Test CRC 596F6AFA
     Copy CRC 596F6AFA
     Accurately ripped (confidence 1)  [6C8FA459]  (AR v2)
     Copy OK
Track 16
     Filename F:\Converted Flac\16 Whatever You Need.wav
     Pre-gap length  0:00:01.53
     Peak level 87.3 %
     Extraction speed 6.3 X
     Track quality 100.0 %
     Test CRC FCFC9E04
     Copy CRC FCFC9E04
     Accurately ripped (confidence 1)  [19E3F3D8]  (AR v2)
     Copy OK
Track 17
     Filename F:\Converted Flac\17 When The Heartache Is Over.wav
     Pre-gap length  0:00:01.68
     Peak level 75.8 %
     Extraction speed 6.2 X
     Track quality 100.0 %
     Test CRC ABAE557C
     Copy CRC ABAE557C
     Accurately ripped (confidence 1)  [4068AE74]  (AR v2)
     Copy OK
Track 18
     Filename F:\Converted Flac\18 River Deep Mountain High.wav
     Pre-gap length  0:00:01.86
     Peak level 97.0 %
     Extraction speed 6.3 X
     Track quality 100.0 %
     Test CRC B5E5C655
     Copy CRC B5E5C655
     Accurately ripped (confidence 1)  [EA2C0D03]  (AR v2)
     Copy OK
All tracks accurately ripped
No errors occurred
End of status report
==== Log checksum E7E9FBF0F5A4D76D42BEB54946F036319A67E8E0167BCD8ECFB45B9E57F099CE ====

Отчёт auCDtect Task manager&#58;

-----------------------
DON'T MODIFY THIS FILE
-----------------------
PERFORMER: auCDtect Task Manager, ver. 1.5.1RC4 build 1.5.1.5
Copyright (c) 2008-2010 y-soft. All rights reserved
http://y-soft.org
ANALYZER: auCDtect: CD records authenticity detector, version 0.8.2
Copyright (c) 2004 Oleg Berngardt. All rights reserved.
Copyright (c) 2004 Alexander Djourik. All rights reserved.
FILE: 18 River Deep Mountain High.flac
  Size: 19431794 Hash: 6949F37D40F6CB21D4C43760607549D9 Accuracy: -m0
  Conclusion: CDDA 100%
  Signature: F749CD602F64BC354E7DB49A9E59E3B7EF304F2B
FILE: 17 When The Heartache Is Over.flac
  Size: 25603291 Hash: 73C71CC16E1A32EB8209C7208D30AC52 Accuracy: -m0
  Conclusion: CDDA 100%
  Signature: 41CCA5FE2CE619977DD9DF5D99E9F75A817B05E4
FILE: 16 Whatever You Need.flac
  Size: 33737352 Hash: 22EBB829D96B6B9307D4050321F082AF Accuracy: -m0
  Conclusion: CDDA 100%
  Signature: B8209C2AA28CF30135067C8000EEC3BF93E6AF70
FILE: 15 I Don't Wanna Fight.flac
  Size: 32170690 Hash: A1BE300E882C9C644E7E3292C29ECE0B Accuracy: -m0
  Conclusion: CDDA 100%
  Signature: E500B5EF852FEC5F70001991F6B346B777FD150C
FILE: 14 Don't Leave Me This Way.flac
  Size: 32079128 Hash: ADD3A7F627061C1E3AA2447220FE0D18 Accuracy: -m0
  Conclusion: CDDA 100%
  Signature: 63545EF4B24FDCEAF577838A7F6A02A9E3D45334
FILE: 13 Be Tender With Me Baby.flac
  Size: 31006695 Hash: F17934A8F00B6319B32F22886CB56050 Accuracy: -m0
  Conclusion: CDDA 100%
  Signature: A4E99940C755F56504E7BAE884C16A188ACF1994
FILE: 12 I Want You Near Me.flac
  Size: 25119069 Hash: 5707EBC3A4637473F98D57954FF9E283 Accuracy: -m0
  Conclusion: CDDA 99%
  Signature: 49B2EB22C4DB7232210B644EE3E8991069430EEA
FILE: 11 Falling.flac
  Size: 27385831 Hash: ADF11057302B15454E4A8F26B9564948 Accuracy: -m0
  Conclusion: CDDA 100%
  Signature: C51A549CD38A43663DAB40059B5BB3263D660E69
FILE: 10 Why Must We Wait Until Tonight.flac
  Size: 26727633 Hash: 4A174EF82C3F94AAEAD061DB7C288848 Accuracy: -m0
  Conclusion: CDDA 100%
  Signature: 2721DD18671B64E5FD5E21E85A95185DBC5FEA40
FILE: 09 Way Of The World.flac
  Size: 31791792 Hash: CB71FD3C80AE1064CACD9ECF4AFAC7D9 Accuracy: -m0
  Conclusion: CDDA 100%
  Signature: 8C88D4AAC2A7FD0A5679965A186FCEC8CE94D17E
FILE: 08 Look Me In The Heart.flac
  Size: 27528460 Hash: 7F6491D72B18D51E43DB94840112C042 Accuracy: -m0
  Conclusion: CDDA 99%
  Signature: EB58EBE831FF9CAFDECB126F57645BF1C63BFD85
FILE: 07 Two People.flac
  Size: 26889675 Hash: 7F7FB3569138320985260FFD39A67558 Accuracy: -m0
  Conclusion: CDDA 86%
  Signature: D9BF532C2910D5DEF4C0A777800440DF6B26CD5E
FILE: 06 Private Dancer.flac
  Size: 27796984 Hash: C20C97F7067BE1023778FB0A28D6EE9A Accuracy: -m0
  Conclusion: CDDA 100%
  Signature: ED41E05395BE6ED802644472A11B2E08D624DD48
FILE: 05 Missing You.flac
  Size: 28733674 Hash: 5162921D43EAE9253CFC4F8404B68DE6 Accuracy: -m0
  Conclusion: CDDA 100%
  Signature: 74A602926A506F32D8716E0C3CAE4D17070A3ABA
FILE: 04 What's Love Got To Do With It.flac
  Size: 23967649 Hash: A7C833DBDFFD7DD672A567C6BE801A59 Accuracy: -m0
  Conclusion: CDDA 100%
  Signature: 80A1BBCF7E4B4E67BE3378AC278A6959D1693965
FILE: 03 Let's Stay Together.flac
  Size: 25588170 Hash: 10EB8A6989E82268CFCB694CDB6F230A Accuracy: -m0
  Conclusion: CDDA 100%
  Signature: E6FAFBC5AD289231E9BFEDAE1716995CAF364BA3
FILE: 02 I Don't Wanna Lose You.flac
  Size: 29716460 Hash: DF15AE816517E539869047ADD13639CE Accuracy: -m0
  Conclusion: CDDA 100%
  Signature: 4BB81EE11B9236068DD68503D5AFCB9E07D31D16
FILE: 01 The Best.flac
  Size: 31840213 Hash: 135716F0ADD7C299ED3C8430DF48CDEF Accuracy: -m0
  Conclusion: MPEG 95%
  Signature: D5A630D26CFA4DED824A1ECB053FF810C5C313E4
-
Яндекс.Метрика
Рейтинг@Mail.ru