[ Сегодня на трекере фрилич! Идет свободное скачивание без начисления Download ]

VA - Klassiska Favoriter Opera (1996) 3CD [FLAC|Lossless]<Classical>

 

Создавать темы 05-Янв-2015 19:39

-VA - Klassiska Favoriter Opera (1996) 3CD- Страна-производитель диска: Sveden
Жанр: Classical
Год издания: 1996
Издатель (лейбл): NAXOS
Номер по каталогу: 8.503021
Аудиокодек: FLAC (*.flac)
Тип рипа: image+.cue
Битрейт аудио: lossless
Источник (релизер): Собственный рип
Наличие сканов: Да, полные
Продолжительность: 03:57:47-Описание:После Новогодних праздников, потянуло на классику. Почти 20 лет назад фирма NAXOS, известная своими выпусками классической музыки, выпустила этот бокс-сет из 3 дисков.
Высокие ценители классики, конечно будут ворчать, что мол классика в такой популяризации не нуждается, а я вот придерживаюсь мнения, что собранные вместе шедевры мировых классиков смогут привить вкус к классической музыке очень многим.
Если после прослушивания этих дисков у Вас появится желание познакомиться с представленными здесь операми подробнее, то значит этот релиз свою задачу выполнил.-

Треклист&#58;

CD1&#58;

01. Georges Bizet - Carmen - Forspel till akt 1 (2:16)
02. Giacomo Puccini - Gianni Schicchi - O mio babbino caro (2:32)
03. Giacomo Puccini - Tosca - E lucevan le stelle (3:16)
04. George Frideric Handel - Rinaldo - Lascia chi'o pianga (3:52)
05. Georges Bizet - Parlfiskarna - Au fond du temple saint (5:53)
06. Antonin Dvorak - Rusalka - Sangen till manen (5:56)
07. Georges Bizet - Carmen - Votre toast (Toreadorarian) (6:14)
08. Giuseppe Verdi - Odets makt - Ouverture (7:48)
09. Ruggero Leoncavallo - Pajazzo - Vesti la giubba (3:18)
10. Pietro Mascagni - Cavalleria Rusticana - Intermezzo (3:46)
11. Richard Wagner - Tannhauser - Begluckt darf nun dich (Pilgrimskoren) (3:50)
12. George Frideric Handel - Xerxes - Ombra mai fu (2:51)
[hide=Продолжение треклиста:][img=right width=350]http://i.imgur.com/qlJ5Gzj.jpg[/img]
13. Wolfgang Amadeus Mozart - Don Giovanni - La ci darem la mano (3:10)
14. Wolfgang Amadeus Mozart - Trollflojten - Der Holle Rache (2:58)
15. Gaetano Donizetti - Karleksdrycken - Una furtiva lagrima (5:14)
16. Giacomo Puccini - La Boheme - Si, mi chiamano Mimi (4:39)
17. Giacomo Puccini - Turandot - Nessun dorma (3:05)
18. Giuseppe Verdi - Rigoletto - Bella figlia dell'amore (4:19)
19. Giuseppe Verdi - Nebukadnessar - Va, pensiero (4:44)
Продoлжитeльность -01:19:40

Отчёт ЕАС&#58;

Exact Audio Copy V1.0 beta 3 from 29. August 2011
Отчёт EAC об извлечении, выполненном 1. января 2015, 18:04
Various Artists / Klassiska Favoriter Opera - CD 1
Дисковод: TSSTcorpBDDVDW SE-506BB   Adapter: 4  ID: 0
Режим чтения                 : Достоверность
Использование точного потока : Да
Отключение кэша аудио        : Да
Использование указателей C2  : Нет
Коррекция смещения при чтении                     : 6
Способность читать области Lead-in и Lead-out     : Нет
Заполнение пропущенных сэмплов тишиной            : Да
Удаление блоков с тишиной в начале и конце        : Нет
При вычислениях CRC использовались нулевые сэмплы : Да
Интерфейс                                         : Встроенный Win32-интерфейс для Win NT/2000
Выходной формат          : Пользовательский кодировщик
Выбранный битрейт        : 1024 kBit/s
Качество                 : Высокий
Добавление ID3-тега      : Нет
Утилита сжатия           : C:\Program Files (x86)\Exact Audio Copy\Flac\flac.exe
Дополнительные параметры : -8 -V -T "ARTIST=%artist%" -T "TITLE=%title%" -T "ALBUM=%albumtitle%" -T "DATE=%year%" -T "TRACKNUMBER=%tracknr%" -T "GENRE=%genre%" -T "COMMENT=%comment%" -T "BAND=%albuminterpret%" -T "ALBUMARTIST=%albuminterpret%" -T "COMPOSER=%composer%" %haslyrics%--tag-from-file=LYRICS="%lyricsfile%"%haslyrics% -T "DISCNUMBER=%cdnumber%" -T "TOTALDISCS=%totalcds%" -T "TOTALTRACKS=%numtracks%" %hascover%--picture="%coverfile%"%hascover% %source% -o %dest%
TOC извлечённого CD
     Трек |   Старт  | Длительность | Начальный сектор | Конечный сектор
    ---------------------------------------------------------------------
       1  |  0:00.00 |    2:15.69   |           0      |      10193
       2  |  2:15.69 |    2:31.39   |       10194      |      21557
       3  |  4:47.33 |    3:16.34   |       21558      |      36291
       4  |  8:03.67 |    3:51.46   |       36292      |      53662
       5  | 11:55.38 |    5:53.27   |       53663      |      80164
       6  | 17:48.65 |    5:55.60   |       80165      |     106849
       7  | 23:44.50 |    6:13.57   |      106850      |     134881
       8  | 29:58.32 |    7:48.03   |      134882      |     169984
       9  | 37:46.35 |    3:18.00   |      169985      |     184834
      10  | 41:04.35 |    3:45.57   |      184835      |     201766
      11  | 44:50.17 |    3:50.15   |      201767      |     219031
      12  | 48:40.32 |    2:50.54   |      219032      |     231835
      13  | 51:31.11 |    3:10.00   |      231836      |     246085
      14  | 54:41.11 |    2:57.52   |      246086      |     259412
      15  | 57:38.63 |    5:14.24   |      259413      |     282986
      16  | 62:53.12 |    4:38.66   |      282987      |     303902
      17  | 67:32.03 |    3:05.12   |      303903      |     317789
      18  | 70:37.15 |    4:18.64   |      317790      |     337203
      19  | 74:56.04 |    4:44.12   |      337204      |     358515
Характеристики диапазона извлечения и сообщения об ошибках
Выбранный диапазон
     Имя файла D:\Classika\VA - Classical Favourites Opera (3 CD) [1996]  FLAC\CD 1 (3)\Various Artists - Klassiska Favoriter Opera - CD 1.wav
     Пиковый уровень 100.0 %
     Скорость извлечения 3.3 X
     Качество диапазона 99.9 %
     CRC теста 02BB1758
     CRC копии 02BB1758
     Копирование... OK
Ошибок не произошло
AccurateRip: сводка
Трек  1  отсутствует в базе данных
Трек  2  отсутствует в базе данных
Трек  3  отсутствует в базе данных
Трек  4  отсутствует в базе данных
Трек  5  отсутствует в базе данных
Трек  6  отсутствует в базе данных
Трек  7  отсутствует в базе данных
Трек  8  отсутствует в базе данных
Трек  9  отсутствует в базе данных
Трек 10  отсутствует в базе данных
Трек 11  отсутствует в базе данных
Трек 12  отсутствует в базе данных
Трек 13  отсутствует в базе данных
Трек 14  отсутствует в базе данных
Трек 15  отсутствует в базе данных
Трек 16  отсутствует в базе данных
Трек 17  отсутствует в базе данных
Трек 18  отсутствует в базе данных
Трек 19  отсутствует в базе данных
Ни одного трека нет в базе AccurateRip
Конец отчёта
---- CUETools DB Plugin V2.1.3
[CTDB TOCID: TaBNeX8IuPeAzfnBfN6.eYrBSp4-] disk not present in database, Submit result: TaBNeX8IuPeAzfnBfN6.eYrBSp4- has been uploaded
==== Контрольная сумма отчёта 2F282E172C324C5883896C927002056AB0D4BC77AA8BE83A4C9EBC3070A366BA ====

CD2&#58;

01. Wolfgang Amadeus Mozart - Ouveryr till 'Figaros brollop' (4:04)
02. Giacomo Puccini - Sa kall ni ar om handen ur 'Boheme' (Che gelida manina) (4:30)
03. Giacomo Puccini - En vacker dag ur 'Madame Butterfly' (Un bel di vedremo) (4:43)
04. Giuseppe Verdi - Karleksduetten ur 'Traviata' (Un di felice) (3:11)
05. Wolfgang Amadeus Mozart - Der Vogelfanger bin ich ja ur 'Trollflojten' (3:00)
06. Jacques Offenbach - Barkaroll ur 'Hoffmans aventyr' (3:25)
07. Giacomo Puccini - Toscas bon ur 'Tosca' (Vissi d'arte) (4:04)
08. Gioachino Rossini - Faktotumarian ur 'Barberaren i Sevilla' (4:41)
09. Alfredo Catalani - Ebben? Ne andro lontana ur 'Wally' (3:36)
10. Wolfgang Amadeus Mozart - Terzetten ur 'Cosi fan Tutte' (Soave sia il vento) (3:17)
11. Christoph Willibald Gluck - Che faro senza Euridice ur 'Orfeus och Eurydike' (5:54)
12. Wolfgang Amadeus Mozart - Non piu andrai ur 'Figaros brollop' (3:43)
13. Giacomo Puccini - Donna non vidi mai ur 'Manon lescaut' (2:43)
14. Giacomo Puccini - Intermezzo ur 'Manon lescaut' (5:21)
15. Georges Bizet - Habaneran ur 'Carmen' (L'amour est une oiseau rebelle) (4:57)
16. Giuseppe Verdi - La donna e mobile ur 'Rigoletto' (2:21)
17. Amilcare Ponchielli - Timmatnas dans ur 'La gioconda' (7:54)
18. Giuseppe Verdi - Triumfmarsch och kor ur 'Aida' (Gloria all' egitto) (7:23)
Продoлжитeльность -01:18:47

Отчёт ЕАС&#58;

Exact Audio Copy V1.0 beta 3 from 29. August 2011
Отчёт EAC об извлечении, выполненном 1. января 2015, 22:18
Various Artists / Klassiska Favoriter: Opera CD2
Дисковод: TSSTcorpBDDVDW SE-506BB   Adapter: 4  ID: 0
Режим чтения                 : Достоверность
Использование точного потока : Да
Отключение кэша аудио        : Да
Использование указателей C2  : Нет
Коррекция смещения при чтении                     : 6
Способность читать области Lead-in и Lead-out     : Нет
Заполнение пропущенных сэмплов тишиной            : Да
Удаление блоков с тишиной в начале и конце        : Нет
При вычислениях CRC использовались нулевые сэмплы : Да
Интерфейс                                         : Встроенный Win32-интерфейс для Win NT/2000
Выходной формат          : Пользовательский кодировщик
Выбранный битрейт        : 1024 kBit/s
Качество                 : Высокий
Добавление ID3-тега      : Нет
Утилита сжатия           : C:\Program Files (x86)\Exact Audio Copy\Flac\flac.exe
Дополнительные параметры : -8 -V -T "ARTIST=%artist%" -T "TITLE=%title%" -T "ALBUM=%albumtitle%" -T "DATE=%year%" -T "TRACKNUMBER=%tracknr%" -T "GENRE=%genre%" -T "COMMENT=%comment%" -T "BAND=%albuminterpret%" -T "ALBUMARTIST=%albuminterpret%" -T "COMPOSER=%composer%" %haslyrics%--tag-from-file=LYRICS="%lyricsfile%"%haslyrics% -T "DISCNUMBER=%cdnumber%" -T "TOTALDISCS=%totalcds%" -T "TOTALTRACKS=%numtracks%" %hascover%--picture="%coverfile%"%hascover% %source% -o %dest%
TOC извлечённого CD
     Трек |   Старт  | Длительность | Начальный сектор | Конечный сектор
    ---------------------------------------------------------------------
       1  |  0:00.00 |    4:03.45   |           0      |      18269
       2  |  4:03.45 |    4:29.66   |       18270      |      38510
       3  |  8:33.36 |    4:43.03   |       38511      |      59738
       4  | 13:16.39 |    3:11.06   |       59739      |      74069
       5  | 16:27.45 |    2:59.72   |       74070      |      87566
       6  | 19:27.42 |    3:25.01   |       87567      |     102942
       7  | 22:52.43 |    4:03.67   |      102943      |     121234
       8  | 26:56.35 |    4:41.06   |      121235      |     142315
       9  | 31:37.41 |    3:35.67   |      142316      |     158507
      10  | 35:13.33 |    3:17.00   |      158508      |     173282
      11  | 38:30.33 |    5:54.00   |      173283      |     199832
      12  | 44:24.33 |    3:43.00   |      199833      |     216557
      13  | 48:07.33 |    2:42.72   |      216558      |     228779
      14  | 50:50.30 |    5:20.72   |      228780      |     252851
      15  | 56:11.27 |    4:57.24   |      252852      |     275150
      16  | 61:08.51 |    2:20.60   |      275151      |     285710
      17  | 63:29.36 |    7:54.21   |      285711      |     321281
      18  | 71:23.57 |    7:23.09   |      321282      |     354515
Характеристики диапазона извлечения и сообщения об ошибках
Выбранный диапазон
     Имя файла D:\Classika\VA - Classical Favourites Opera (3 CD) [1996]  FLAC\CD 2 (3)\Various Artists - Klassiska Favoriter- Opera CD2.wav
     Пиковый уровень 100.0 %
     Скорость извлечения 1.6 X
     Качество диапазона 100.0 %
     CRC теста A0DE5A87
     CRC копии A0DE5A87
     Копирование... OK
Ошибок не произошло
AccurateRip: сводка
Трек  1  отсутствует в базе данных
Трек  2  отсутствует в базе данных
Трек  3  отсутствует в базе данных
Трек  4  отсутствует в базе данных
Трек  5  отсутствует в базе данных
Трек  6  отсутствует в базе данных
Трек  7  отсутствует в базе данных
Трек  8  отсутствует в базе данных
Трек  9  отсутствует в базе данных
Трек 10  отсутствует в базе данных
Трек 11  отсутствует в базе данных
Трек 12  отсутствует в базе данных
Трек 13  отсутствует в базе данных
Трек 14  отсутствует в базе данных
Трек 15  отсутствует в базе данных
Трек 16  отсутствует в базе данных
Трек 17  отсутствует в базе данных
Трек 18  отсутствует в базе данных
Ни одного трека нет в базе AccurateRip
Конец отчёта
---- CUETools DB Plugin V2.1.3
[CTDB TOCID: F7H0kT8EicuGE9K5EHq2vqHqxFI-] disk not present in database, Submit result: F7H0kT8EicuGE9K5EHq2vqHqxFI- has been uploaded
==== Контрольная сумма отчёта 04FA2804EDDE0DB747B920D8377FF132345DF6F88968B20E19D52D969BBD65FA ====

CD3&#58;

01. Gioachino Rossini - Uvertyr till Barberaren i Sevilla (6:43)
02. Giacomo Puccini - Recondita armonia ur Tosca (4:29)
03. Wolfgang Amadeus Mozart - Ach ich fuhl's ur Trollflojten (4:19)
04. Giacomo Puccini - Karleksduetten ur Boheme (3:43)
05. Christoph Willibald Gluck - Dans i de saligas angder ur Orfeus och Eurydike (6:10)
06. Leo Delibes - Blomsterduetten ur Lakme (6:41)
07. Georges Bizet - Blomsterarian ur Carmen (7:49)
08. Richard Wagner - Brudkoren ur Lohengrin (4:56)
09. Wolfgang Amadeus Mozart - Katalogarian ur Don Juan (5:46)
10. Friedrich von Flotow - M'appari tutt'amor ur Martha (3:15)
11. Giuseppe Verdi - Forspel till akt 3 av Traviata (4:06)
12. Giuseppe Verdi - Pace, pace mio Dio ur Odets makt (5:32)
13. Umberto Giordano - Come un bel di di maggio ur Andrea Chenier (3:00)
14. Giuseppe Verdi - Celeste Aida ur Aida (4:31)
15. Giuseppe Verdi - Smideskoren ur Trubaduren (2:55)
16. Richard Wagner - Valkyrieritten ur Valkyrian (5:26)
Продoлжитeльность -01:19:20

Отчёт ЕАС&#58;

Exact Audio Copy V1.0 beta 3 from 29. August 2011
Отчёт EAC об извлечении, выполненном 2. января 2015, 0:05
Various Artists / Klassiska Favoriter: Opera CD3
Дисковод: TSSTcorpBDDVDW SE-506BB   Adapter: 4  ID: 0
Режим чтения                 : Достоверность
Использование точного потока : Да
Отключение кэша аудио        : Да
Использование указателей C2  : Нет
Коррекция смещения при чтении                     : 6
Способность читать области Lead-in и Lead-out     : Нет
Заполнение пропущенных сэмплов тишиной            : Да
Удаление блоков с тишиной в начале и конце        : Нет
При вычислениях CRC использовались нулевые сэмплы : Да
Интерфейс                                         : Встроенный Win32-интерфейс для Win NT/2000
Выходной формат          : Пользовательский кодировщик
Выбранный битрейт        : 1024 kBit/s
Качество                 : Высокий
Добавление ID3-тега      : Нет
Утилита сжатия           : C:\Program Files (x86)\Exact Audio Copy\Flac\flac.exe
Дополнительные параметры : -8 -V -T "ARTIST=%artist%" -T "TITLE=%title%" -T "ALBUM=%albumtitle%" -T "DATE=%year%" -T "TRACKNUMBER=%tracknr%" -T "GENRE=%genre%" -T "COMMENT=%comment%" -T "BAND=%albuminterpret%" -T "ALBUMARTIST=%albuminterpret%" -T "COMPOSER=%composer%" %haslyrics%--tag-from-file=LYRICS="%lyricsfile%"%haslyrics% -T "DISCNUMBER=%cdnumber%" -T "TOTALDISCS=%totalcds%" -T "TOTALTRACKS=%numtracks%" %hascover%--picture="%coverfile%"%hascover% %source% -o %dest%
TOC извлечённого CD
     Трек |   Старт  | Длительность | Начальный сектор | Конечный сектор
    ---------------------------------------------------------------------
       1  |  0:00.00 |    6:43.12   |           0      |      30236
       2  |  6:43.12 |    4:28.52   |       30237      |      50388
       3  | 11:11.64 |    4:18.66   |       50389      |      69804
       4  | 15:30.55 |    3:42.42   |       69805      |      86496
       5  | 19:13.22 |    6:09.66   |       86497      |     114237
       6  | 25:23.13 |    6:41.04   |      114238      |     144316
       7  | 32:04.17 |    7:49.24   |      144317      |     179515
       8  | 39:53.41 |    4:56.00   |      179516      |     201715
       9  | 44:49.41 |    5:46.07   |      201716      |     227672
      10  | 50:35.48 |    3:14.39   |      227673      |     242261
      11  | 53:50.12 |    4:05.57   |      242262      |     260693
      12  | 57:55.69 |    5:32.12   |      260694      |     285605
      13  | 63:28.06 |    2:59.69   |      285606      |     299099
      14  | 66:28.00 |    4:30.72   |      299100      |     319421
      15  | 70:58.72 |    2:54.63   |      319422      |     332534
      16  | 73:53.60 |    5:25.54   |      332535      |     356963
Характеристики диапазона извлечения и сообщения об ошибках
Выбранный диапазон
     Имя файла D:\Classika\VA - Classical Favourites Opera (3 CD) [1996]  FLAC\CD 3 (3)\Various Artists - Klassiska Favoriter- Opera CD3.wav
     Пиковый уровень 100.0 %
     Скорость извлечения 1.6 X
     Качество диапазона 100.0 %
     CRC теста C66D405A
     CRC копии C66D405A
     Копирование... OK
Ошибок не произошло
AccurateRip: сводка
Трек  1  отсутствует в базе данных
Трек  2  отсутствует в базе данных
Трек  3  отсутствует в базе данных
Трек  4  отсутствует в базе данных
Трек  5  отсутствует в базе данных
Трек  6  отсутствует в базе данных
Трек  7  отсутствует в базе данных
Трек  8  отсутствует в базе данных
Трек  9  отсутствует в базе данных
Трек 10  отсутствует в базе данных
Трек 11  отсутствует в базе данных
Трек 12  отсутствует в базе данных
Трек 13  отсутствует в базе данных
Трек 14  отсутствует в базе данных
Трек 15  отсутствует в базе данных
Трек 16  отсутствует в базе данных
Ни одного трека нет в базе AccurateRip
Конец отчёта
---- CUETools DB Plugin V2.1.3
[CTDB TOCID: FGEHOZOuYos9TXWonuaVakdZlCI-] disk not present in database, Submit result: FGEHOZOuYos9TXWonuaVakdZlCI- has been uploaded
==== Контрольная сумма отчёта FD221B442C981D8E8AE26934DD8D8A5260E0DADA72DDE22758A17A780EF16748 ====
-
Яндекс.Метрика
Рейтинг@Mail.ru