Первый удар / Ging chaat goo si 4: Ji gaan daan yam mo (Стенли Тонг / Stanley Tong) [1996 г., боевик, триллер, драма, комедия, криминал, приключения, DVDRip-AVC] AVO (Андрей Гаврилов) + original (Eng)

 

Создавать темы 05-Янв-2015 05:33

Первый удар / Ging chaat goo si 4: Ji gaan daan yam mo
Год выпуска: 1996
Производство: США, Австралия, Гонконг
Жанр: боевик, триллер, драма, комедия, криминал, приключения
Продолжительность: 01:47:36
Перевод: Авторский (одноголосый, закадровый) Андрей Гаврилов
Оригинальный аудиопоток: английский
Субтитры: отсутствуют
Режиссер: Стенли Тонг / Stanley Tong
В ролях: Джеки Чан, Джексон Лью, Энни Ву, Билл Тун, Юрий Петров, Нонна Гришаева, Джон Ивис, Терри Ву, Кристофер Казмарек, Эйлен Сит
Описание: Агенту ЦРУ Джеки поручают следить за шпионкой Наташей, которая купила тур на Украину. Джеки надеется выследить, с кем будет контактировать девушка, но она скрывается. Джеки бросается в погоню. Он гонится за ней по Австралии и России. Главная его задача — остаться в живых и поймать Тсуи, сообщника Наташи, похитившего ядерную боеголовку. Тсуи оказывается ее любовником, бывшим сотрудником ЦРУ. Его завербовал сотрудник КГБ Егоров, лидер русской мафии.
, КиноПоиск
Качество видео: DVDRip-AVC
Контейнер: MKV
Видео кодек: H.264
Аудио кодек: AC3
Видео: 688x288, 23.976fps, 1742Kbps, 0.367 bt/px
Аудио : AC-3, 192 Kbps, 2 ch, 48.0 KHz Rus Гаврилов
Аудио : AC-3, 192 Kbps, 2 ch, 48.0 KHz Eng Original

Media Info

H:\КИНОФИЛЬМЫ\FIRST_STRIKE(ПЕРВЫЙ УДАР)ГОНКОНГ.mkv
General
Unique ID : 216013493698621362267409792807928223563 (0xA282AF82DD6133C09A30EB2EFC9E574B)
Complete name : H:\КИНОФИЛЬМЫ\FIRST_STRIKE(ПЕРВЫЙ УДАР)ГОНКОНГ.mkv
Format : Matroska
Format version : Version 1
File size : 1.61 GiB
Duration : 1h 47mn
Overall bit rate : 2 142 Kbps
Encoded date : UTC 2015-01-02 17:41:40
Writing application : mkvmerge v2.5.3 ('Boogie') built on Mar 7 2009 15:00:41
Writing library : libebml v0.7.7 + libmatroska v0.8.1
Video #1
ID : 1
Format : AVC
Format/Info : Advanced Video Codec
Format profile : [email protected]
Format settings, CABAC : Yes
Format settings, ReFrames : 11 frames
Codec ID : V_MPEG4/ISO/AVC
Duration : 1h 47mn
Bit rate : 1 742 Kbps
Width : 688 pixels
Height : 288 pixels
Display aspect ratio : 2.40:1
Frame rate mode : Constant
Frame rate : 23.976 fps
Color space : YUV
Chroma subsampling : 4:2:0
Bit depth : 8 bits
Scan type : Progressive
Bits/(Pixel*Frame) : 0.367
Stream size : 1.29 GiB (80%)
Writing library : x264 core 130 r2273 b3065e6
Encoding settings : cabac=1 / ref=11 / deblock=1:-1:-1 / analyse=0x3:0x133 / me=umh / subme=11 / psy=1 / psy_rd=1.00:0.05 / mixed_ref=1 / me_range=24 / chroma_me=1 / trellis=2 / 8x8dct=1 / cqm=0 / deadzone=21,11 / fast_pskip=0 / chroma_qp_offset=-3 / threads=4 / lookahead_threads=4 / sliced_threads=0 / nr=0 / decimate=0 / interlaced=0 / bluray_compat=0 / constrained_intra=0 / bframes=6 / b_pyramid=2 / b_adapt=2 / b_bias=0 / direct=1 / weightb=1 / open_gop=0 / weightp=2 / keyint=250 / keyint_min=23 / scenecut=40 / intra_refresh=0 / rc_lookahead=40 / rc=abr / mbtree=1 / bitrate=1742 / ratetol=1.0 / qcomp=0.60 / qpmin=0 / qpmax=69 / qpstep=4 / ip_ratio=1.40 / aq=1:1.00
Language : English
Default : Yes
Forced : No
Audio #2
ID : 2
Format : AC-3
Format/Info : Audio Coding 3
Mode extension : CM (complete main)
Format settings, Endianness : Big
Codec ID : A_AC3
Duration : 1h 47mn
Bit rate mode : Constant
Bit rate : 192 Kbps
Channel(s) : 2 channels
Channel positions : Front: L R
Sampling rate : 48.0 KHz
Bit depth : 16 bits
Compression mode : Lossy
Stream size : 148 MiB (9%)
Title : AVO Гаврилов
Language : Russian
Default : Yes
Forced : No
Audio #3
ID : 3
Format : AC-3
Format/Info : Audio Coding 3
Mode extension : CM (complete main)
Format settings, Endianness : Big
Codec ID : A_AC3
Duration : 1h 47mn
Bit rate mode : Constant
Bit rate : 192 Kbps
Channel(s) : 2 channels
Channel positions : Front: L R
Sampling rate : 48.0 KHz
Bit depth : 16 bits
Compression mode : Lossy
Stream size : 148 MiB (9%)
Language : English
Default : No
Forced : No

Скриншоты

Яндекс.Метрика
Рейтинг@Mail.ru