[ Сегодня на трекере фрилич! Идет свободное скачивание без начисления Download ]

(Progressive Power Metal) Angra - Secret Garden (Japan Limited Edition)(2СD) - 2014 [FLAC, image+.cue, lossless]

 

Создавать темы 04-Янв-2015 00:09

-Angra / Secret Garden (Japan Limited Edition)(2СD)-- Год издания: 2014
Страна: Brazil
Жанр: Progressive Power Metal
Продолжительность: 01:50:15-Лейбл издания: Victor Entertainment
Страна-выпуска диска: Japan
Номер по каталогу: VIZP-132
Формат: FLAC
Битрейт аудио: lossless
Тип рипа: image+.cue
Наличие сканов в содержимом раздачи: да
-

Трэклист

CD 1 | 00:49:02

01.Newborn Me (06:13)
02.Black Hearted Soul (04:48)
03.Final Light (04:24)
04.Storm Of Emotions (04:56)
05.Violet Sky (04:48)
06.Secret Garden (04:03)
07.Upper Levels (06:28)
08.Crushing Room (05:07)
09.Perfect Symmetry (04:22)
10.Silent Call (03:48)

CD 2 | 01:01:12

01.Angels Cry (06:53)
02.Nothing To Say (06:25)
03.Waiting Silence (04:57)
04.Time (05:57)
05.Lisbon (04:53)
06.Winds Of Destination (07:33)
07.Gentle Change (05:44)
08.Unfinished Allegro (01:11)
09.Carry On (05:44)
10.Rebirth (06:03)
11.Nova Era (05:47)

Лог создания рипа

CD 1

Exact Audio Copy V1.0 beta 3 from 29. August 2011
EAC extraction logfile from 24. December 2014, 11:51
Angra / Secret Garden (Japan Limited Edition) CD 1
Used drive  : HP      DVD Writer 1170d   Adapter: 0  ID: 0
Read mode               : Secure
Utilize accurate stream : Yes
Defeat audio cache      : Yes
Make use of C2 pointers : No
Read offset correction                      : 6
Overread into Lead-In and Lead-Out          : No
Fill up missing offset samples with silence : Yes
Delete leading and trailing silent blocks   : No
Null samples used in CRC calculations       : Yes
Used interface                              : Native Win32 interface for Win NT & 2000
Used output format              : User Defined Encoder
Selected bitrate                : 768 kBit/s
Quality                         : High
Add ID3 tag                     : No
Command line compressor         : C:\Program Files (x86)\Exact Audio Copy\FLAC\FLAC.EXE
Additional command line options : -V -8 -T "Date=%year%" -T "Genre=%genre%" -T"COMMENT=Ripped by Ungern666" -8 -V %source%
TOC of the extracted CD
Track |   Start  |  Length  | Start sector | End sector
---------------------------------------------------------
1  |  0:00.00 |  6:13.57 |         0    |    28031
2  |  6:13.57 |  4:48.55 |     28032    |    49686
3  | 11:02.37 |  4:24.67 |     49687    |    69553
4  | 15:27.29 |  4:56.68 |     69554    |    91821
5  | 20:24.22 |  4:48.22 |     91822    |   113443
6  | 25:12.44 |  4:03.71 |    113444    |   131739
7  | 29:16.40 |  6:28.62 |    131740    |   160901
8  | 35:45.27 |  5:07.07 |    160902    |   183933
9  | 40:52.34 |  4:22.39 |    183934    |   203622
10  | 45:14.73 |  3:48.02 |    203623    |   220724
Range status and errors
Selected range
Filename C:\EAC\Ungern666\Angra - Secret Garden (Japan Limited Edition) CD 1.wav
Peak level 100.0 %
Extraction speed 6.9 X
Range quality 100.0 %
Test CRC 0B3F4306
Copy CRC 0B3F4306
Copy OK
No errors occurred
AccurateRip summary
Track  1  not present in database
Track  2  not present in database
Track  3  not present in database
Track  4  not present in database
Track  5  not present in database
Track  6  not present in database
Track  7  not present in database
Track  8  not present in database
Track  9  not present in database
Track 10  not present in database
None of the tracks are present in the AccurateRip database
End of status report

CD 2

Exact Audio Copy V1.0 beta 3 from 29. August 2011
EAC extraction logfile from 24. December 2014, 12:18
Angra /  Secret Garden (Japan Limited Edition) CD 2
Used drive  : HP      DVD Writer 1170d   Adapter: 0  ID: 0
Read mode               : Secure
Utilize accurate stream : Yes
Defeat audio cache      : Yes
Make use of C2 pointers : No
Read offset correction                      : 6
Overread into Lead-In and Lead-Out          : No
Fill up missing offset samples with silence : Yes
Delete leading and trailing silent blocks   : No
Null samples used in CRC calculations       : Yes
Used interface                              : Native Win32 interface for Win NT & 2000
Used output format              : User Defined Encoder
Selected bitrate                : 768 kBit/s
Quality                         : High
Add ID3 tag                     : No
Command line compressor         : C:\Program Files (x86)\Exact Audio Copy\FLAC\FLAC.EXE
Additional command line options : -V -8 -T "Date=%year%" -T "Genre=%genre%" -T"COMMENT=Ripped by Ungern666" -8 -V %source%
TOC of the extracted CD
Track |   Start  |  Length  | Start sector | End sector
---------------------------------------------------------
1  |  0:00.00 |  6:53.73 |         0    |    31047
2  |  6:53.73 |  6:25.16 |     31048    |    59938
3  | 13:19.14 |  4:57.25 |     59939    |    82238
4  | 18:16.39 |  5:57.67 |     82239    |   109080
5  | 24:14.31 |  4:53.51 |    109081    |   131106
6  | 29:08.07 |  7:33.07 |    131107    |   165088
7  | 36:41.14 |  5:44.58 |    165089    |   190946
8  | 42:25.72 |  1:11.14 |    190947    |   196285
9  | 43:37.11 |  5:44.47 |    196286    |   222132
10  | 49:21.58 |  6:03.40 |    222133    |   249397
11  | 55:25.23 |  5:47.43 |    249398    |   275465
Range status and errors
Selected range
Filename C:\EAC\Ungern666\Angra -  Secret Garden (Japan Limited Edition) CD 2.wav
Peak level 100.0 %
Extraction speed 5.9 X
Range quality 99.9 %
Test CRC 00F7F00F
Copy CRC 00F7F00F
Copy OK
No errors occurred
AccurateRip summary
Track  1  not present in database
Track  2  not present in database
Track  3  not present in database
Track  4  not present in database
Track  5  not present in database
Track  6  not present in database
Track  7  not present in database
Track  8  not present in database
Track  9  not present in database
Track 10  not present in database
Track 11  not present in database
None of the tracks are present in the AccurateRip database
End of status report

Индексная карта (non-compilant .cue)

CD 1

REM DATE 2014
REM DISCID 8D0B7F0A
REM COMMENT "ExactAudioCopy v1.0b3"
PERFORMER "Angra"
TITLE "Secret Garden (Japan Limited Edition) CD 1"
FILE "Angra - Secret Garden (Japan Limited Edition) CD 1.flac" WAVE
TRACK 01 AUDIO
TITLE "Newborn Me"
PERFORMER "Angra"
INDEX 01 00:00:00
TRACK 02 AUDIO
TITLE "Black Hearted Soul"
PERFORMER "Angra"
INDEX 01 06:13:57
TRACK 03 AUDIO
TITLE "Final Light"
PERFORMER "Angra"
INDEX 01 11:02:37
TRACK 04 AUDIO
TITLE "Storm Of Emotions"
PERFORMER "Angra"
INDEX 01 15:27:29
TRACK 05 AUDIO
TITLE "Violet Sky"
PERFORMER "Angra"
INDEX 01 20:24:22
TRACK 06 AUDIO
TITLE "Secret Garden"
PERFORMER "Angra"
INDEX 01 25:12:44
TRACK 07 AUDIO
TITLE "Upper Levels"
PERFORMER "Angra"
INDEX 01 29:16:40
TRACK 08 AUDIO
TITLE "Crushing Room"
PERFORMER "Angra"
INDEX 01 35:45:27
TRACK 09 AUDIO
TITLE "Perfect Symmetry"
PERFORMER "Angra"
INDEX 01 40:52:34
TRACK 10 AUDIO
TITLE "Silent Call"
PERFORMER "Angra"
INDEX 01 45:14:73

CD 2

REM DATE 2014
REM DISCID 920E580B
REM COMMENT "ExactAudioCopy v1.0b3"
PERFORMER "Angra"
TITLE " Secret Garden (Japan Limited Edition) CD 2"
FILE "Angra -  Secret Garden (Japan Limited Edition) CD 2.flac" WAVE
TRACK 01 AUDIO
TITLE "Angels Cry"
PERFORMER "Angra"
INDEX 01 00:00:00
TRACK 02 AUDIO
TITLE "Nothing To Say"
PERFORMER "Angra"
INDEX 01 06:53:73
TRACK 03 AUDIO
TITLE "Waiting Silence"
PERFORMER "Angra"
INDEX 01 13:19:14
TRACK 04 AUDIO
TITLE "Time"
PERFORMER "Angra"
INDEX 01 18:16:39
TRACK 05 AUDIO
TITLE "Lisbon"
PERFORMER "Angra"
INDEX 01 24:14:31
TRACK 06 AUDIO
TITLE "Winds Of Destination"
PERFORMER "Angra"
INDEX 01 29:08:07
TRACK 07 AUDIO
TITLE "Gentle Change"
PERFORMER "Angra"
INDEX 01 36:41:14
TRACK 08 AUDIO
TITLE "Unfinished Allegro"
PERFORMER "Angra"
INDEX 01 42:25:72
TRACK 09 AUDIO
TITLE "Carry On"
PERFORMER "Angra"
INDEX 01 43:37:11
TRACK 10 AUDIO
TITLE "Rebirth"
PERFORMER "Angra"
INDEX 01 49:21:58
TRACK 11 AUDIO
TITLE "Nova Era"
PERFORMER "Angra"
INDEX 01 55:25:23
--
Яндекс.Метрика
Рейтинг@Mail.ru