Сказочная Русь - Корона Украинской Империи / Вечерний Киев. Сезон №5. Серия №38 (122) (2014) SATRip

 

Создавать темы 03-Янв-2015 11:54

- Сказочная Русь - Корона Украинской Империи / Вечерний Киев. Сезон №5. Серия №38 (122) (2014) SATRip - Режиссер / Телекомпания:
1+1
Русское название: Сказочная Русь
Год выпуска: 2014
Жанр: анимационный сериал, политика
Описание:
Будет смешно но-новом: Политический мультфильм "Сказочная Русь" изготовлен с использованием технологий 3D. Это рассказ о тех далеких-далеких временах, когда в Киевской Руси еще не было письменности и о которых до нас дошли только легенды. Тогда богатыри жили по соседству, а Змей Горыныч весной возвращался с юга - и жизнь казалась сказочным! Поэтому и страна тогда называлась "Сказочная Русь". "Мы придумали страну под названием Сказочная Русь, где современные политические персонажи живут в те времена и обсуждают том языке сегодняшние проблемы", - говорит Владимир Зеленский, художественный руководитель "Студии Квартал-95". Новый выпуск мультфильма посвящен девушкам и женщинам, которые живут в Сказочной Руси. Именно они станут участниками конкурса "Мисс Сказочная Русь". Также в мультфильме появятся новые герои и сказочные персонажи.
Канал 1+1 начинает показ серийного политического мультфильма "Сказочная Русь", изготовленного с помощью технологий 3D. Сказочные события происходят в далекие времена Киевской Руси, когда известные богатыри жили по соседству, а Змей Горыныч весной возвращался с юга. "Мы придумали страну под названием Сказочная Русь, где современные политические персонажи живут в те времена и обсуждают том языке сегодняшние проблемы", - говорит Владимир Зеленский, художественный руководитель "Студии Квартал-95". Выпуск мультфильма посвящен прекрасной половине населеня сказочной Руси. Тамошние женщины и девушки примут участие в конкурсе "Мисс Сказочная Русь". А еще в мультфильме появятся новые герои и сказочные персонажи.
Это комедийный мультфильм, который осмеивает и пародирует известных украинских политиков и общественных деятелей. - Мультфильм выполнен очень качественно, Мы покажем политиков и медийщиков, которые предстанут в виде сказочных персонажей. Рубрика будет абсолютно без цензуры, - приоткрыл завесу Зеленский.
Режиссёр: Владимир Зеленский
В ролях: Владимир Зеленский, Виктор Янукович, Владимир Путин, Александр Лукашенко, Дмитрий Медведев, Николай Азаров, Виктор Ющенко, Наталия Королевская, Юлия Тимошенко, Володимир Литвин, Савик Шустер, Виталий Кличко, Дмитрий Киселёв, Виктор Ющенко, Савик Шустер, Леонид Кравчук, Леонид Кучма, Барак Обама, Ангела Меркель...
Выпущено: Студия Квартал-95
Продолжительность: ~ 00:15:55
Видеокодек: XVID
Битрейт видео: ~2463 kb/s
Размер кадра: 720 x 416
Качество видео: SATRip
Аудиокодек: MP3, 2ch.
Битрейт аудио: 192 kb/s

MediaInfo

Формат : AVI
Формат/Информация : Audio Video Interleave
Размер файла : 303 Мбайт
Продолжительность : 15 м.
Общий поток : 2665 Кбит/сек
Программа кодирования : VirtualDubMod 1.5.10.3 | www.virtualdub-fr.org || (build 2550/release)
Библиотека кодирования : VirtualDubMod build 2550/release
Видео
Идентификатор : 0
Формат : MPEG-4 Visual
Профиль формата : Advanced [email protected]
Параметр BVOP формата : 1
Параметр QPel формата : Нет
Параметр GMC формата : Без точки перехода
Параметр матрицы формата : Default (MPEG)
Идентификатор кодека : XVID
Идентификатор кодека/Подсказка : XviD
Продолжительность : 15 м.
Битрейт : 2463 Кбит/сек
Ширина : 720 пикселей
Высота : 416 пикселей
Соотношение сторон : 1,731
Частота кадров : 25,000 кадров/сек
Цветовое пространство : YUV
Субдискретизация насыщенности : 4:2:0
Битовая глубина : 8 бит
Тип развёртки : Прогрессивная
Метод сжатия : С потерями
Бит/(Пиксели*Кадры) : 0.329
Размер потока : 280 Мбайт (92%)
Библиотека кодирования : XviD 1.2.1 (UTC 2008-12-04)
Аудио
Идентификатор : 1
Формат : MPEG Audio
Версия формата : Version 1
Профиль формата : Layer 3
Режим : Joint stereo
Расширение режима : MS Stereo
Идентификатор кодека : 55
Идентификатор кодека/Подсказка : MP3
Продолжительность : 15 м.
Вид битрейта : Постоянный
Битрейт : 192 Кбит/сек
Каналы : 2 канала
Частота : 48,0 КГц
Метод сжатия : С потерями
Размер потока : 21,9 Мбайт (7%)
Выравнивание : Соединение по промежуткам
Продолжительность промежутка : 40 мс. (1,00 видеокадр)
Время предзагрузки промежутка : 504 мс.
Библиотека кодирования : LAME3.99r
Настройки программы : -m j -V 4 -q 2 -lowpass 18.6 -b 192
Скриншоты:--Время раздачи: 24/7. До первых 5 скачавших.
Rip by simkanetua
Яндекс.Метрика
Рейтинг@Mail.ru