[ Сегодня на трекере фрилич! Идет свободное скачивание без начисления Download ]

Мерцающий / The Glimmer Man (Джон Грэй / John Gray) [1996 г., Боевик, триллер, драма, комедия, криминал, WEB-DL, 720p] AVO (Гаврилов, Кашкин) + Original (Eng)

 

Создавать темы 02-Янв-2015 18:17

Мерцающий / The Glimmer Man
Год выпуска: 1996
Производство: США
Жанр: Боевик, триллер, драма, комедия, криминал
Продолжительность: 01:31:24
Перевод: Авторский (одноголосый, закадровый) Андрей Гаврилов
Перевод 2: Авторский (одноголосый, закадровый) Александр Кашкин
Оригинальный аудиопоток: английский
Субтитры: отсутствуют
Режиссер: Джон Грэй / John Gray
В ролях: Стивен Сигал, Кинен Айвори Вейенс, Боб Гантон, Брайан Кокс, Джон М. Джексон, Мишель Джонсон, Стивен Тоболовски, Питер Джейсон, Райан Катрона, Ричард Гант
Описание: Перед полицейским управлением Лос-Анджелеса поставлена задача: найти и обезвредить преступника, на счету которого немало жертв. Непосредственно по следу убийцы идут два сыщика: Джек Коул и Джим Кэмпбелл. В таком ответственном и рискованном деле, как охота на убийцу, от партнера зависит многое, а иногда все.
Однако именно эти двое полицейских решительно неспособны понять друг друга. Суровый и немногословный Коул, воспитанный на восточной философии и боевых искусствах, не может не удивляться своему напарнику, балагуру и шутнику.
А Кэмпбелла, как человека здравомыслящего и житейски опытного, раздражает постоянная склонность партнера к мордобою и прочим резким действиям. Порой ему вообще начинает казаться, что преступник, которого они ищут, не кто иной, как его напарник Коул.
, КиноПоиск
Качество видео: WEB-DL
Контейнер: MKV
Стандарт разрешения: 720p
Видео кодек: H.264
Аудио кодек: AC3
Видео: 1276x720, 3906 Kbps, 23.976 fps, 0.177 bt/px
Аудио : AC-3, 384 Kbps, 6 ch, 48.0 KHz Rus Гаврилов
Аудио : AC-3, 192 Kbps, 2 ch, 48.0 KHz Rus Кашкин
Аудио : AC-3, 384 Kbps, 6 ch, 48.0 KHz Eng Original

Доп. информация

WEB DL найден в сети, дороги Гаврилова и оригинал с DVD из колллекции.
За дорогу Кашкина благодарим Ansent.

Media Info

G:\загрузки\The_Glimmer_Man_[Pirat.ca].torrent.mkv
General
Unique ID : 216151467269074676690273080620342057292 (0xA29D422227DCE731B50C6382B690194C)
Complete name : G:\загрузки\The_Glimmer_Man_[Pirat.ca].torrent.mkv
Format : Matroska
Format version : Version 1
File size : 3.17 GiB
Duration : 1h 31mn
Overall bit rate : 4 964 Kbps
Movie name : The Glimmer Man. 1996. HDTVRip (720p) - Kinozal.TV-HD (YlNiAn)
Encoded date : UTC 2014-12-21 20:04:15
Writing application : mkvmerge v2.5.3 ('Boogie') built on Mar 7 2009 15:00:41
Writing library : libebml v0.7.7 + libmatroska v0.8.1
Video #1
ID : 1
Format : AVC
Format/Info : Advanced Video Codec
Format profile : [email protected]
Format settings, CABAC : No
Format settings, ReFrames : 2 frames
Codec ID : V_MPEG4/ISO/AVC
Duration : 1h 31mn
Bit rate : 3 906 Kbps
Width : 1 276 pixels
Height : 720 pixels
Display aspect ratio : 16:9
Frame rate mode : Constant
Frame rate : 23.976 fps
Color space : YUV
Chroma subsampling : 4:2:0
Bit depth : 8 bits
Scan type : Progressive
Bits/(Pixel*Frame) : 0.177
Stream size : 2.49 GiB (79%)
Language : English
Default : Yes
Forced : No
Color primaries : BT.709
Transfer characteristics : BT.709
Matrix coefficients : BT.709
Audio #2
ID : 2
Format : AC-3
Format/Info : Audio Coding 3
Mode extension : CM (complete main)
Format settings, Endianness : Big
Codec ID : A_AC3
Duration : 1h 31mn
Bit rate mode : Constant
Bit rate : 384 Kbps
Channel(s) : 6 channels
Channel positions : Front: L C R, Side: L R, LFE
Sampling rate : 48.0 KHz
Bit depth : 16 bits
Compression mode : Lossy
Stream size : 251 MiB (8%)
Title : AVO Гаврилов
Language : Russian
Default : Yes
Forced : No
Audio #3
ID : 3
Format : AC-3
Format/Info : Audio Coding 3
Mode extension : CM (complete main)
Format settings, Endianness : Big
Codec ID : A_AC3
Duration : 1h 31mn
Bit rate mode : Constant
Bit rate : 192 Kbps
Channel(s) : 2 channels
Channel positions : Front: L R
Sampling rate : 48.0 KHz
Bit depth : 16 bits
Compression mode : Lossy
Stream size : 126 MiB (4%)
Title : AVO Кашкин
Language : Russian
Default : No
Forced : No
Audio #4
ID : 4
Format : AC-3
Format/Info : Audio Coding 3
Mode extension : CM (complete main)
Format settings, Endianness : Big
Codec ID : A_AC3
Duration : 1h 31mn
Bit rate mode : Constant
Bit rate : 384 Kbps
Channel(s) : 6 channels
Channel positions : Front: L C R, Side: L R, LFE
Sampling rate : 48.0 KHz
Bit depth : 16 bits
Compression mode : Lossy
Stream size : 251 MiB (8%)
Language : English
Default : No
Forced : No

Скриншоты

Яндекс.Метрика
Рейтинг@Mail.ru