Маша и медведь + Машины сказки + Машкины страшилки / Маша и медведь + Машины сказки + Машкины страшилки/ Серии: 1-47 + 1-26 + 1-2 (Олег Кузовков, Олег Ужинов, Денис Червяцов) [2009-2014 г., Мультфильм, короткометражка, детский, комедия, HDRip, BDRip]

 

Создавать темы 01-Янв-2015 07:38

-Маша и медведь (серии 1-47) + Машины сказки (серии 1-26) + Машкины страшилки (серии 1-2) / Маша и медведь + Машины сказки + Машкины страшилки-- Производство: Россия
Режиссер: Олег Кузовков, Олег Ужинов, Денис Червяцов
Жанр: Мультфильм, короткометражка, детский, комедия
Год выпуска: 2009 г. - 2014 г.
Продолжительность: одна серия ~ 7 минут.
Перевод: Не требуется
Роли озвучивали: Алина Кукушкина, Борис Кутневич, Эдуард Назаров-Описание: Мультсериал про девочку Машу, которая никому не дает покоя, и в первую очередь — своему другу Медведю.-КиноПоиск
Качество видео: HDRip
Контейнер: avi
Видео кодек: MPEG-4 (XviD)
Аудио кодек: AC-3
Видео: ~1450 kbps, 720x400, 24 fps;
Аудио: 384 kbps, 6 ch, 48,0 khz
Cубтитры: отсутствуют

Media Info

Общее
Полное имя : F:\Download\Маша и медведь\Masha.i.Medved.+.Mashiny.Skazki.2009-2014.XviD.HDRip.by.GeneralFilm\01.Первая встреча.avi
Формат : AVI
Формат/Информация : Audio Video Interleave
Размер файла : 90,8 Мбайт
Продолжительность : 6 м. 52 с.
Общий поток : 1844 Кбит/сек
Программа кодирования : VirtualDubMod 1.5.10.3 | www.virtualdub-fr.org || (build 2550/release)
Библиотека кодирования : VirtualDubMod build 2550/release
Видео
Идентификатор : 0
Формат : MPEG-4 Visual
Профиль формата : Advanced [email protected]
Параметр BVOP формата : 1
Параметр QPel формата : Нет
Параметр GMC формата : Без точки перехода
Параметр матрицы формата : Default (H.263)
Идентификатор кодека : XVID
Идентификатор кодека/Подсказка : XviD
Продолжительность : 6 м. 52 с.
Битрейт : 1451 Кбит/сек
Ширина : 720 пикселей
Высота : 400 пикселей
Соотношение сторон : 16:9
Частота кадров : 24,000 кадра/сек
Цветовое пространство : YUV
Субдискретизация насыщенности : 4:2:0
Битовая глубина : 8 бит
Тип развёртки : Прогрессивная
Метод сжатия : С потерями
Бит/(Пиксели*Кадры) : 0.210
Размер потока : 71,4 Мбайт (79%)
Библиотека кодирования : XviD 73
Аудио
Идентификатор : 1
Формат : AC-3
Формат/Информация : Audio Coding 3
Расширение режима : CM (complete main)
Параметр Endianness формата : Big
Идентификатор кодека : 2000
Продолжительность : 6 м. 52 с.
Вид битрейта : Постоянный
Битрейт : 384 Кбит/сек
Каналы : 6 каналов
Расположение каналов : Front: L C R, Side: L R, LFE
Частота : 48,0 КГц
Битовая глубина : 16 бит
Метод сжатия : С потерями
Размер потока : 18,9 Мбайт (21%)
Выравнивание : Разделение по промежуткам
Продолжительность промежутка : 42 мс. (1,00 видеокадр)
Время предзагрузки промежутка : 500 мс.

Скриншот c названием мультфильма

Скриншоты

Список серий

01. Первая встреча!
02. До весны не будить!
03. Раз, два, три! Ёлочка, гори!
04. Весна пришла!
05. Ловись рыбка!
06. Следы невиданных зверей
07. С волками жить...
08. Позвони мне, позвони!
09. День варенья
10. Праздник на льду
11. Первый раз в первый класс
12. Граница на замке
13. Кто не спрятался, я не виноват
14. Лыжню!
15. Будьте здоровы!
16. Маша + каша
17. Дальний родственник
18. Большая стирка
19. Репетиция оркестра
20. Усатый полосатый
21. Один дома
22. Дышите! Не дышите!
23. Подкидыш
24. Приятного аппетита
25. Фокус-покус
26. Осторожно, ремонт!
27. Картина маслом
28. Ход конём
29. Хит сезона
30. Витамин роста
31. Когда все дома
32. Новая метла
33. Сладкая жизнь
34. Фотография 9 на 12
35. Трудно быть маленьким
36. Двое на одного
37. Большое путешествие
38. Нынче все наоборот
39. Сказка на ночь
40. Красота - страшная сила
41. Дело в шляпе
42. День кино
43. Героями не рождаются
44. Раз в году
45. Запутанная история
46. Учитель танцев
47. Крик победы
-Маша и медведь. Машины сказки (серии 1-26) / Маша и медведь. Машины сказки-- Производство: Россия
Режиссер: Ринат Газизов, Денис Червяцов
Жанр: Мультфильм, короткометражка, детский, комедия
Год выпуска: 2011 г. - 2013 г.
Продолжительность: серия ~ 00:05:50
Общая продолжительность: 02:18:54
Перевод: Не требуется
Роли озвучивали: Алина Кукушкина-Описание: Маша рассказывает двум своим игрушкам, Кукле и Мишке, сказки. В этих сказках имеется юмор и своеобразие...-КиноПоиск
Качество видео: HDRip
Контейнер: AVI
Видео кодек: XviD
Аудио кодек: AC-3
Видео: 1450 kbps, 720x400, 24 fps
Аудио: 192 kbps, 2 ch, 48,0 khz
Cубтитры: отсутствуют

Media Info

Общее
Полное имя : F:\Download\Маша и медведь\Masha.i.Medved.+.Mashiny.Skazki.2009-2014.XviD.HDRip.by.GeneralFilm\Mashiny.Skazki\01.Волк и семеро козлят.avi
Формат : AVI
Формат/Информация : Audio Video Interleave
Размер файла : 90,2 Мбайт
Продолжительность : 7 м. 38 с.
Общий поток : 1651 Кбит/сек
Программа кодирования : VirtualDubMod 1.5.10.3 | www.virtualdub-fr.org || (build 2550/release)
Библиотека кодирования : VirtualDubMod build 2550/release
Видео
Идентификатор : 0
Формат : MPEG-4 Visual
Профиль формата : Advanced [email protected]
Параметр BVOP формата : 1
Параметр QPel формата : Нет
Параметр GMC формата : Без точки перехода
Параметр матрицы формата : Default (H.263)
Идентификатор кодека : XVID
Идентификатор кодека/Подсказка : XviD
Продолжительность : 7 м. 38 с.
Битрейт : 1450 Кбит/сек
Ширина : 720 пикселей
Высота : 400 пикселей
Соотношение сторон : 16:9
Частота кадров : 24,000 кадра/сек
Цветовое пространство : YUV
Субдискретизация насыщенности : 4:2:0
Битовая глубина : 8 бит
Тип развёртки : Прогрессивная
Метод сжатия : С потерями
Бит/(Пиксели*Кадры) : 0.210
Размер потока : 79,2 Мбайт (88%)
Библиотека кодирования : XviD 73
Аудио
Идентификатор : 1
Формат : AC-3
Формат/Информация : Audio Coding 3
Расширение режима : CM (complete main)
Параметр Endianness формата : Big
Идентификатор кодека : 2000
Продолжительность : 7 м. 38 с.
Вид битрейта : Постоянный
Битрейт : 192 Кбит/сек
Каналы : 2 канала
Расположение каналов : Front: L R
Частота : 48,0 КГц
Битовая глубина : 16 бит
Метод сжатия : С потерями
Размер потока : 10,5 Мбайт (12%)
Выравнивание : Разделение по промежуткам
Продолжительность промежутка : 42 мс. (1,00 видеокадр)
Время предзагрузки промежутка : 500 мс.

Скриншот c названием мультфильма

Скриншоты

Список серий

01. Волк и семеро козлят
02. Гуси-Лебеди
03. Лиса и Заяц
04. Красная шапочка
05. Морозко
06. Волк и лиса
07. Вершки и корешки
08. Царевна-лягушка
09. Снегурочка
10. Мальчик с пальчик
11. Крошечка-хаврошечка
12. Бычок смоляной бочок
13. Три поросенка
14. Храбрый портняжка
15. Али-Баба
16. Золушка
17. Калиф-аист
18. Джек и бобовое зернышко
19. Свинопас
20. Синяя борода
21. По щучьему велению
22. Лисичка со скалочкой
23. Каша из топора
24. Пойди туда - не знаю куда, принеси то - не знаю что
25. Петушок - Золотой гребешок
26. Конек-Горбунок
-Маша и медведь. Машкины страшилки (серии 1-2) / Маша и медведь. Машкины страшилки-- Производство: Россия, студия "Анимакорд".
Режиссер: Олег Ужинов, Денис Червяцов, Олег Кузовков
Жанр: Мультсериал, детский, приключения, комедия
Год выпуска: 2014 г.
Продолжительность: серия ~ 00:05:45
Общая продолжительность: ~ 00:10:30
Перевод: Не требуется
Роли озвучивали: Алина Кукушкина, Эдуард Назаров, Борис Кутневич-Описание: Новый проект студии "Анимаккорд" - "Машкины страшилки"... Все дети боятся темноты. Маша раньше тоже так её боялась, что приходилось ей по ночам с фонариком сидеть! Но однажды Маша придумала сказочку про маленького лесного жучка, который тоже боялся темноты... Трепещите! Маша взялась за новый жанр - теперь она рассказывает страшилки!
Качество видео: DVDRip
Контейнер: AVI
Видео кодек: XviD
Аудио кодек: AC-3
Видео: 1450 kbps, 720x400, 24 fps
Аудио: 192 kbps, 2 ch, 48,0 khz
Cубтитры: отсутствуют

Media Info

Общее
Полное имя : G:\Download\Маша и медведь\Masha.i.Medved.+.Mashiny.Skazki.+Mashiny.strashilki.2009-2014.XviD.HDRip\Mashiny.Strashilki\01.Душераздирающая повесть о темном лесе и маленьком жучке.avi
Формат : AVI
Формат/Информация : Audio Video Interleave
Размер файла : 67,9 Мбайт
Продолжительность : 5 м. 44 с.
Общий поток : 1652 Кбит/сек
Программа кодирования : VirtualDubMod 1.5.10.3 | www.virtualdub-fr.org || (build 2550/release)
Библиотека кодирования : VirtualDubMod build 2550/release
Видео
Идентификатор : 0
Формат : MPEG-4 Visual
Профиль формата : Advanced [email protected]
Параметр BVOP формата : 1
Параметр QPel формата : Нет
Параметр GMC формата : Без точки перехода
Параметр матрицы формата : Default (H.263)
Идентификатор кодека : XVID
Идентификатор кодека/Подсказка : XviD
Продолжительность : 5 м. 44 с.
Битрейт : 1450 Кбит/сек
Ширина : 720 пикселей
Высота : 400 пикселей
Соотношение сторон : 16:9
Частота кадров : 25,000 кадров/сек
Цветовое пространство : YUV
Субдискретизация насыщенности : 4:2:0
Битовая глубина : 8 бит
Тип развёртки : Прогрессивная
Метод сжатия : С потерями
Бит/(Пиксели*Кадры) : 0.201
Размер потока : 59,6 Мбайт (88%)
Библиотека кодирования : XviD 73
Аудио
Идентификатор : 1
Формат : AC-3
Формат/Информация : Audio Coding 3
Расширение режима : CM (complete main)
Параметр Endianness формата : Big
Идентификатор кодека : 2000
Продолжительность : 5 м. 44 с.
Вид битрейта : Постоянный
Битрейт : 192 Кбит/сек
Каналы : 2 канала
Расположение каналов : Front: L R
Частота : 48,0 КГц
Битовая глубина : 16 бит
Метод сжатия : С потерями
Размер потока : 7,89 Мбайт (12%)
Выравнивание : Разделение по промежуткам
Продолжительность промежутка : 40 мс. (1,00 видеокадр)
Время предзагрузки промежутка : 500 мс.

Скриншоты

Список серий

01. Душераздирающая повесть о темном лесе и маленьком жучке
02. Жутко-страшное предание о том, как один мальчик боялся умываться.
Яндекс.Метрика
Рейтинг@Mail.ru