(PoP) [CD] VA - Лучшие песни русского радио 9 - 2003, FLAC (image+.cue), lossless

 

Создавать темы 30-Дек-2014 05:45

--Various Artists - Лучшие песни русского радио. Выпуск 9-- Жанр: PoP
Носитель: CD
Страна-производитель диска : Россия
Год издания: 2003
Издатель (лейбл): Граммофон Рекордс
Номер по каталогу: GRAMMOFON 150-2
Страна исполнителя (группы): Россия
Аудиокодек: FLAC (*.flac)
Тип рипа: image+.cue
Битрейт аудио: lossless
Продолжительность: 01:18:56
Наличие сканов в содержимом раздачи: да
Треклист:

01. Intro 00:20
02. Валерия - Часики 03:05
03. Л.Агутин 'Отпетые мошенники' - Граница 03:52
04. А.Данилко (Верка Сердючка) - Рождена для любви 05:21
05. ГЛЮКОZА - Невеста 04:08
06. Гости из будущего - Девушка которая поет 03:05
07. Татьяна Буланова - Ангел 04:21
08. Алексей Романов - За окном серый дождь 03:18
09. Блестящие - Апельсиновая песня 03:11
10. Н.Королева и Тарзан - Не забуду 03:10
11. Андрей Губин - Я и ты 03:28
12. Наталья Ветлицкая - Пламя страсти 03:16
13. Другие правила - Она тебе нужна 03:38
14. SMASH!! - Молитва 04:08
15. Динамит - Ямайка 03:41
16. Жасмин - Дольче вита 03:36
17. Марина Хлебникова - А я нарядная 04:19
18. Любовные истории - Там на моей стороне Луны 03:15
19. Пропаганда - Дождь по крыше 03:31
20. Наташа Власова - Алеет лето 03:13
21. НЕПАРА - Другая причина 04:01
22. Владимир Кузьмин - Сказка моей жизни 04:47

Отчёт EAC

Exact Audio Copy V1.0 beta 1 from 15. November 2010
Отчёт EAC об извлечении, выполненном 28. декабря 2014, 22:54
Various / Лучшие песни русского радио 9
Дисковод: ASUS DRW-24B3ST Adapter: 0 ID: 1
Режим чтения : Достоверность
Использование точного потока : Да
Отключение кэша аудио : Да
Использование указателей C2 : Нет
Коррекция смещения при чтении : 6
Способность читать области Lead-in и Lead-out : Нет
Заполнение пропущенных сэмплов тишиной : Да
Удаление блоков с тишиной в начале и конце : Нет
При вычислениях CRC использовались нулевые сэмплы : Да
Интерфейс : Встроенный Win32-интерфейс для Win NT/2000
Выходной формат : Пользовательский кодировщик
Выбранный битрейт : 896 kBit/s
Качество : Высокий
Добавление ID3-тэга : Нет
Утилита сжатия : C:\Program Files\Exact Audio Copy\FLAC\FLAC.EXE
Дополнительные параметры : -T "DATE=%y" -T "GENRE=%m" -8 -V %s
TOC извлечённого CD
Трек | Старт | Длительность | Начальный сектор | Конечный сектор
---------------------------------------------------------------------
1 | 0:00.00 | 0:20.34 | 0 | 1533
2 | 0:20.34 | 3:05.59 | 1534 | 15467
3 | 3:26.18 | 3:52.04 | 15468 | 32871
4 | 7:18.22 | 5:21.26 | 32872 | 56972
5 | 12:39.48 | 4:08.31 | 56973 | 75603
6 | 16:48.04 | 3:05.65 | 75604 | 89543
7 | 19:53.69 | 4:21.11 | 89544 | 109129
8 | 24:15.05 | 3:18.54 | 109130 | 124033
9 | 27:33.59 | 3:11.69 | 124034 | 138427
10 | 30:45.53 | 3:10.51 | 138428 | 152728
11 | 33:56.29 | 3:28.61 | 152729 | 168389
12 | 37:25.15 | 3:16.15 | 168390 | 183104
13 | 40:41.30 | 3:38.50 | 183105 | 199504
14 | 44:20.05 | 4:08.68 | 199505 | 218172
15 | 48:28.73 | 3:41.30 | 218173 | 234777
16 | 52:10.28 | 3:36.58 | 234778 | 251035
17 | 55:47.11 | 4:19.74 | 251036 | 270534
18 | 60:07.10 | 3:15.52 | 270535 | 285211
19 | 63:22.62 | 3:31.36 | 285212 | 301072
20 | 66:54.23 | 3:13.11 | 301073 | 315558
21 | 70:07.34 | 4:01.25 | 315559 | 333658
22 | 74:08.59 | 4:47.49 | 333659 | 355232
Характеристики диапазона извлечения и сообщения об ошибках
Выбранный диапазон
Имя файла E:\trofim\Flac\Various - Лучшие песни русского радио 9.wav
Пиковый уровень 100.0 %
0.4 X
Качество диапазона 100.0 %
CRC теста 2D17FA7C
CRC копии 2D17FA7C
Копирование... OK
Ошибок не произошло
AccurateRip: сводка
Трек 1 нет в базе данных
Трек 2 нет в базе данных
Трек 3 нет в базе данных
Трек 4 нет в базе данных
Трек 5 нет в базе данных
Трек 6 нет в базе данных
Трек 7 нет в базе данных
Трек 8 нет в базе данных
Трек 9 нет в базе данных
Трек 10 нет в базе данных
Трек 11 нет в базе данных
Трек 12 нет в базе данных
Трек 13 нет в базе данных
Трек 14 нет в базе данных
Трек 15 нет в базе данных
Трек 16 нет в базе данных
Трек 17 нет в базе данных
Трек 18 нет в базе данных
Трек 19 нет в базе данных
Трек 20 нет в базе данных
Трек 21 нет в базе данных
Трек 22 нет в базе данных
Ни одного трека нет в базе AccurateRip
Конец отчёта
==== 5B077D303FB75A9BE86DBA614BE2802925B2DB94BF339FA3B3E16C2DE5548EDB ====
Яндекс.Метрика
Рейтинг@Mail.ru