(Pop, Bossa Nova, Jazz Pop) [CD] Леонид Агутин - Коллекция (7 CD) - 2008-2013, FLAC (image+.cue), lossless

 

Создавать темы 28-Дек-2014 20:55

-Леонид Агутин - Коллекция [7CD]- Жанр: Pop, Bossa Nova, Jazz Pop
Носитель: CD
Год издания: 2008-2013
Страна исполнителя (группы): Россия
Аудиокодек: FLAC (*.flac)
Тип рипа: image+.cue
Битрейт аудио: lossless
Продолжительность: 06:22:17
Источник (релизер): Dark Crown
Наличие сканов в содержимом раздачи: Да (600 DPI)-Треклист:

2008 - Босоногий мальчик

Страна-производитель диска: Россия
Год издания диска: 2008
Издатель (лейбл): Квадро-Диск
Номер по каталогу: KTL 08-648
Продолжительность: 00:46:39

01. Босоногий мальчик
02. За счастьем
03. Разговор о дожде
04. Девочка
05. Никому не сестра
06. Голос высокой травы
07. Следом за весной
08. Хоп Хэй Лала Лэй
09. Вспомни о нём
10. Парень чернокожий
11. Всё только для тебя
12. Кого не стоило бы ждать

EAC:

Exact Audio Copy V1.0 beta 3 from 29. August 2011
Отчёт EAC об извлечении, выполненном 8. ноября 2014, 15:48
Леонид Агутин / Босоногий мальчик
Дисковод: Optiarc DVD RW AD-5200S   Adapter: 3  ID: 0
Режим чтения                 : Достоверность
Использование точного потока : Да
Отключение кэша аудио        : Да
Использование указателей C2  : Нет
Коррекция смещения при чтении                     : 48
Способность читать области Lead-in и Lead-out     : Нет
Заполнение пропущенных сэмплов тишиной            : Да
Удаление блоков с тишиной в начале и конце        : Нет
При вычислениях CRC использовались нулевые сэмплы : Да
Интерфейс                                         : Установленный внешний ASPI-интерфейс
Выходной формат          : Пользовательский кодировщик
Выбранный битрейт        : 768 kBit/s
Качество                 : Высокий
Добавление ID3-тега      : Нет
Утилита сжатия           : C:\Program Files\Exact Audio Copy\FLAC\FLAC.EXE
Дополнительные параметры : -6 -V -T "ARTIST=%artist%" -T "TITLE=%title%" -T "ALBUM=%albumtitle%" -T "DATE=%year%" -T "TRACKNUMBER=%tracknr%" -T "GENRE=%genre%" -T "COMMENT=%comment%" -T "BAND=%albuminterpret%" -T "ALBUMARTIST=%albuminterpret%" -T "COMPOSER=%composer%" %haslyrics%--tag-from-file=LYRICS="%lyricsfile%"%haslyrics% -T "DISCNUMBER=%cdnumber%" -T "TOTALDISCS=%totalcds%" -T "TOTALTRACKS=%numtracks%" %hascover%--picture="%coverfile%"%hascover% %source% -o %dest%
TOC извлечённого CD
     Трек |   Старт  | Длительность | Начальный сектор | Конечный сектор
    ---------------------------------------------------------------------
       1  |  0:00.00 |    3:43.50   |           0      |      16774
       2  |  3:43.50 |    3:34.34   |       16775      |      32858
       3  |  7:18.09 |    4:10.04   |       32859      |      51612
       4  | 11:28.13 |    3:38.09   |       51613      |      67971
       5  | 15:06.22 |    5:15.02   |       67972      |      91598
       6  | 20:21.24 |    3:48.72   |       91599      |     108770
       7  | 24:10.21 |    3:33.56   |      108771      |     124801
       8  | 27:44.02 |    3:43.10   |      124802      |     141536
       9  | 31:27.12 |    3:54.40   |      141537      |     159126
      10  | 35:21.52 |    3:41.56   |      159127      |     175757
      11  | 39:03.33 |    3:47.07   |      175758      |     192789
      12  | 42:50.40 |    3:48.38   |      192790      |     209927
Характеристики диапазона извлечения и сообщения об ошибках
Выбранный диапазон
     Имя файла F:\LOSSLESS\Леонид Агутин\Новая папка\Леонид Агутин - Босоногий мальчик.wav
     Пиковый уровень 79.6 %
     Скорость извлечения 3.8 X
     Качество диапазона 100.0 %
     CRC теста 79CA6E91
     CRC копии 79CA6E91
     Копирование... OK
Ошибок не произошло
AccurateRip: сводка
Трек  1  точность не определена (достоверность 1)  [977540C5], AccurateRip вернул [6D853B53]  (AR v2)
Трек  2  точность не определена (достоверность 1)  [71233596], AccurateRip вернул [27CFB8CC]  (AR v2)
Трек  3  точность не определена (достоверность 1)  [1FF01110], AccurateRip вернул [06CC2F9B]  (AR v2)
Трек  4  точность не определена (достоверность 1)  [10D01E73], AccurateRip вернул [515C3078]  (AR v2)
Трек  5  точность не определена (достоверность 1)  [F138A48A], AccurateRip вернул [578709A4]  (AR v2)
Трек  6  точность не определена (достоверность 1)  [7F0E6367], AccurateRip вернул [74639EB2]  (AR v2)
Трек  7  точность не определена (достоверность 1)  [35F0FC64], AccurateRip вернул [D6D0A5A9]  (AR v2)
Трек  8  точность не определена (достоверность 1)  [B2A8D68E], AccurateRip вернул [B40CD7AF]  (AR v2)
Трек  9  точность не определена (достоверность 1)  [F77E1F80], AccurateRip вернул [AE6D841B]  (AR v2)
Трек 10  точность не определена (достоверность 1)  [EA73B232], AccurateRip вернул [F7EBC0F2]  (AR v2)
Трек 11  точность не определена (достоверность 1)  [0E2DF7B5], AccurateRip вернул [2A99015B]  (AR v2)
Трек 12  точность не определена (достоверность 1)  [937693C6], AccurateRip вернул [E3318190]  (AR v2)
Ни один трек не прошёл проверки на точность
В вашей базе может быть иной вариант штамповки диска
Конец отчёта
==== Контрольная сумма отчёта B1A91A58D7670A931106967AAAC591989523086598B4CFBD9586D067217454D1 ====

2008 - Декамерон

Страна-производитель диска: Россия
Год издания диска: 2008
Издатель (лейбл): Квадро-Диск
Номер по каталогу: KTL 08-649
Продолжительность: 00:40:23

01. Остров
02. На сиреневой луне
03. Пароход
04. Бум голова бум
05. Ты вернёшься когда-нибудь снова
06. Путник звёздных дорог
07. Всё куда-то девалось
08. Муха
09. Двери в небеса
10. Ole' Ole'

EAC:

Exact Audio Copy V1.0 beta 3 from 29. August 2011
Отчёт EAC об извлечении, выполненном 8. ноября 2014, 16:22
Леонид Агутин / Декамерон
Дисковод: Optiarc DVD RW AD-5200S   Adapter: 3  ID: 0
Режим чтения                 : Достоверность
Использование точного потока : Да
Отключение кэша аудио        : Да
Использование указателей C2  : Нет
Коррекция смещения при чтении                     : 48
Способность читать области Lead-in и Lead-out     : Нет
Заполнение пропущенных сэмплов тишиной            : Да
Удаление блоков с тишиной в начале и конце        : Нет
При вычислениях CRC использовались нулевые сэмплы : Да
Интерфейс                                         : Установленный внешний ASPI-интерфейс
Выходной формат          : Пользовательский кодировщик
Выбранный битрейт        : 768 kBit/s
Качество                 : Высокий
Добавление ID3-тега      : Нет
Утилита сжатия           : C:\Program Files\Exact Audio Copy\FLAC\FLAC.EXE
Дополнительные параметры : -6 -V -T "ARTIST=%artist%" -T "TITLE=%title%" -T "ALBUM=%albumtitle%" -T "DATE=%year%" -T "TRACKNUMBER=%tracknr%" -T "GENRE=%genre%" -T "COMMENT=%comment%" -T "BAND=%albuminterpret%" -T "ALBUMARTIST=%albuminterpret%" -T "COMPOSER=%composer%" %haslyrics%--tag-from-file=LYRICS="%lyricsfile%"%haslyrics% -T "DISCNUMBER=%cdnumber%" -T "TOTALDISCS=%totalcds%" -T "TOTALTRACKS=%numtracks%" %hascover%--picture="%coverfile%"%hascover% %source% -o %dest%
TOC извлечённого CD
     Трек |   Старт  | Длительность | Начальный сектор | Конечный сектор
    ---------------------------------------------------------------------
       1  |  0:00.00 |    3:53.58   |           0      |      17532
       2  |  3:53.58 |    4:03.58   |       17533      |      35815
       3  |  7:57.41 |    3:32.25   |       35816      |      51740
       4  | 11:29.66 |    3:23.13   |       51741      |      66978
       5  | 14:53.04 |    3:52.21   |       66979      |      84399
       6  | 18:45.25 |    4:48.14   |       84400      |     106013
       7  | 23:33.39 |    4:58.14   |      106014      |     128377
       8  | 28:31.53 |    3:16.18   |      128378      |     143095
       9  | 31:47.71 |    5:00.37   |      143096      |     165632
      10  | 36:48.33 |    3:35.29   |      165633      |     181786
Характеристики диапазона извлечения и сообщения об ошибках
Выбранный диапазон
     Имя файла F:\LOSSLESS\Леонид Агутин\2008 - Декамерон\Леонид Агутин - Декамерон.wav
     Пиковый уровень 94.7 %
     Скорость извлечения 3.6 X
     Качество диапазона 100.0 %
     CRC теста CA25CFA3
     CRC копии CA25CFA3
     Копирование... OK
Ошибок не произошло
AccurateRip: сводка
Трек  1  отсутствует в базе данных
Трек  2  отсутствует в базе данных
Трек  3  отсутствует в базе данных
Трек  4  отсутствует в базе данных
Трек  5  отсутствует в базе данных
Трек  6  отсутствует в базе данных
Трек  7  отсутствует в базе данных
Трек  8  отсутствует в базе данных
Трек  9  отсутствует в базе данных
Трек 10  отсутствует в базе данных
Ни одного трека нет в базе AccurateRip
Конец отчёта
==== Контрольная сумма отчёта DDD385BB63A75AD111C8830F3621E61C395EF90C4AE8C1E9A7061422DA90AE09 ====

2008 - Леонид Агутин

Страна-производитель диска: Россия
Год издания диска: 2008
Издатель (лейбл): Квадро-Диск
Номер по каталогу: KTL 08-879
Продолжительность: 00:47:32

01. Луна
02. Трамвайчик
03. Половина сердца
04. Little Jean
05. Я не понимаю
06. Новый Год
07. New York
08. Не выходи из дома
09. На сиреневой луне
10. Папа, мама
11. Прощай

EAC:

Exact Audio Copy V1.0 beta 3 from 29. August 2011
Отчёт EAC об извлечении, выполненном 8. ноября 2014, 22:26
Леонид Агутин / Леонид Агутин
Дисковод: Optiarc DVD RW AD-5200S   Adapter: 3  ID: 0
Режим чтения                 : Достоверность
Использование точного потока : Да
Отключение кэша аудио        : Да
Использование указателей C2  : Нет
Коррекция смещения при чтении                     : 48
Способность читать области Lead-in и Lead-out     : Нет
Заполнение пропущенных сэмплов тишиной            : Да
Удаление блоков с тишиной в начале и конце        : Нет
При вычислениях CRC использовались нулевые сэмплы : Да
Интерфейс                                         : Установленный внешний ASPI-интерфейс
Выходной формат          : Пользовательский кодировщик
Выбранный битрейт        : 768 kBit/s
Качество                 : Высокий
Добавление ID3-тега      : Нет
Утилита сжатия           : C:\Program Files\Exact Audio Copy\FLAC\FLAC.EXE
Дополнительные параметры : -6 -V -T "ARTIST=%artist%" -T "TITLE=%title%" -T "ALBUM=%albumtitle%" -T "DATE=%year%" -T "TRACKNUMBER=%tracknr%" -T "GENRE=%genre%" -T "COMMENT=%comment%" -T "BAND=%albuminterpret%" -T "ALBUMARTIST=%albuminterpret%" -T "COMPOSER=%composer%" %haslyrics%--tag-from-file=LYRICS="%lyricsfile%"%haslyrics% -T "DISCNUMBER=%cdnumber%" -T "TOTALDISCS=%totalcds%" -T "TOTALTRACKS=%numtracks%" %hascover%--picture="%coverfile%"%hascover% %source% -o %dest%
TOC извлечённого CD
     Трек |   Старт  | Длительность | Начальный сектор | Конечный сектор
    ---------------------------------------------------------------------
       1  |  0:00.00 |    3:42.02   |           0      |      16651
       2  |  3:42.02 |    4:21.02   |       16652      |      36228
       3  |  8:03.04 |    4:08.02   |       36229      |      54830
       4  | 12:11.06 |    6:03.02   |       54831      |      82057
       5  | 18:14.08 |    3:11.02   |       82058      |      96384
       6  | 21:25.10 |    4:08.02   |       96385      |     114986
       7  | 25:33.12 |    4:07.02   |      114987      |     133513
       8  | 29:40.14 |    3:30.02   |      133514      |     149265
       9  | 33:10.16 |    6:40.02   |      149266      |     179267
      10  | 39:50.18 |    3:17.02   |      179268      |     194044
      11  | 43:07.20 |    4:25.02   |      194045      |     213921
Характеристики диапазона извлечения и сообщения об ошибках
Выбранный диапазон
     Имя файла F:\LOSSLESS\Леонид Агутин\Новая папка\Леонид Агутин - Леонид Агутин.wav
     Пиковый уровень 98.8 %
     Скорость извлечения 4.0 X
     Качество диапазона 100.0 %
     CRC теста 5457593C
     CRC копии 5457593C
     Копирование... OK
Ошибок не произошло
AccurateRip: сводка
Трек  1  отсутствует в базе данных
Трек  2  отсутствует в базе данных
Трек  3  отсутствует в базе данных
Трек  4  отсутствует в базе данных
Трек  5  отсутствует в базе данных
Трек  6  отсутствует в базе данных
Трек  7  отсутствует в базе данных
Трек  8  отсутствует в базе данных
Трек  9  отсутствует в базе данных
Трек 10  отсутствует в базе данных
Трек 11  отсутствует в базе данных
Ни одного трека нет в базе AccurateRip
Конец отчёта
==== Контрольная сумма отчёта 83A380A8BE02ABC1F197869FC1B95884C60F08D34BBF716A1591A20992E3A166 ====

2008 - Любовь. Дорога. Грусть и Радость

Страна-производитель диска: Россия
Год издания диска: 2008
Издатель (лейбл): Квадро-Диск
Номер по каталогу: KTL 07-651N
Продолжительность: 00:44:28

01. Игрушки
02. Не уходи далеко
03. Белиберда
04. Две дорги, два пути
05. Прочитай между строк
06. Женщинам
07. Платье невесты
08. Колыбельная
09. Зимняя вишня [Новая версия]
10. По дороге на Юг
11. Аэропорты

EAC:

Exact Audio Copy V1.0 beta 3 from 29. August 2011
Отчёт EAC об извлечении, выполненном 8. ноября 2014, 21:58
Леонид Агутин / Любовь. Дорога. Грусть и Радость
Дисковод: Optiarc DVD RW AD-5200S   Adapter: 3  ID: 0
Режим чтения                 : Достоверность
Использование точного потока : Да
Отключение кэша аудио        : Да
Использование указателей C2  : Нет
Коррекция смещения при чтении                     : 48
Способность читать области Lead-in и Lead-out     : Нет
Заполнение пропущенных сэмплов тишиной            : Да
Удаление блоков с тишиной в начале и конце        : Нет
При вычислениях CRC использовались нулевые сэмплы : Да
Интерфейс                                         : Установленный внешний ASPI-интерфейс
Выходной формат          : Пользовательский кодировщик
Выбранный битрейт        : 768 kBit/s
Качество                 : Высокий
Добавление ID3-тега      : Нет
Утилита сжатия           : C:\Program Files\Exact Audio Copy\FLAC\FLAC.EXE
Дополнительные параметры : -6 -V -T "ARTIST=%artist%" -T "TITLE=%title%" -T "ALBUM=%albumtitle%" -T "DATE=%year%" -T "TRACKNUMBER=%tracknr%" -T "GENRE=%genre%" -T "COMMENT=%comment%" -T "BAND=%albuminterpret%" -T "ALBUMARTIST=%albuminterpret%" -T "COMPOSER=%composer%" %haslyrics%--tag-from-file=LYRICS="%lyricsfile%"%haslyrics% -T "DISCNUMBER=%cdnumber%" -T "TOTALDISCS=%totalcds%" -T "TOTALTRACKS=%numtracks%" %hascover%--picture="%coverfile%"%hascover% %source% -o %dest%
TOC извлечённого CD
     Трек |   Старт  | Длительность | Начальный сектор | Конечный сектор
    ---------------------------------------------------------------------
       1  |  0:00.00 |    5:09.53   |           0      |      23227
       2  |  5:09.53 |    4:25.02   |       23228      |      43104
       3  |  9:34.55 |    3:33.65   |       43105      |      59144
       4  | 13:08.45 |    4:03.24   |       59145      |      77393
       5  | 17:11.69 |    3:19.36   |       77394      |      92354
       6  | 20:31.30 |    3:28.43   |       92355      |     107997
       7  | 23:59.73 |    4:32.15   |      107998      |     128412
       8  | 28:32.13 |    3:26.27   |      128413      |     143889
       9  | 31:58.40 |    4:21.36   |      143890      |     163500
      10  | 36:20.01 |    3:25.54   |      163501      |     178929
      11  | 39:45.55 |    4:43.13   |      178930      |     200167
Характеристики диапазона извлечения и сообщения об ошибках
Выбранный диапазон
     Имя файла F:\LOSSLESS\Леонид Агутин\Новая папка\Леонид Агутин - Любовь. Дорога. Грусть и Радость.wav
     Пиковый уровень 96.6 %
     Скорость извлечения 3.8 X
     Качество диапазона 100.0 %
     CRC теста C93E8DE1
     CRC копии C93E8DE1
     Копирование... OK
Ошибок не произошло
AccurateRip: сводка
Трек  1  отсутствует в базе данных
Трек  2  отсутствует в базе данных
Трек  3  отсутствует в базе данных
Трек  4  отсутствует в базе данных
Трек  5  отсутствует в базе данных
Трек  6  отсутствует в базе данных
Трек  7  отсутствует в базе данных
Трек  8  отсутствует в базе данных
Трек  9  отсутствует в базе данных
Трек 10  отсутствует в базе данных
Трек 11  отсутствует в базе данных
Ни одного трека нет в базе AccurateRip
Конец отчёта
==== Контрольная сумма отчёта 46C756E2641C77412A107B67BCE8C0179C3F8F656BC5048F5ABC24A4AD754DA0 ====

2011 - Серия «Grand Collection». Часть 2

Страна-производитель диска: Россия
Год издания диска: 2011
Издатель (лейбл): Квадро-Диск
Номер по каталогу: GCR303
Продолжительность: 01:19:21

01. Леонид Агутин feat Анжелика Варум - Две дороги, два пути
02. Не уходи далеко
03. Половина сердца
04. Синей реки вода
05. Танцевали пары
06. Леонид Агутин feat Анжелика Варум - Я буду всегда с тобой
07. Пароход
08. Леонид Агутин feat «Отпетые Мошеннники» - Граница
09. Леонид Агутин feat Анжелика Варум - Если ты когда-нибудь меня простишь
10. На семи холмах
11. Всё только для тебя
12. Не выходи из дома
13. Ты вернёшься когда-нибудь снова
14. Игрушки
15. Без тебя
16. По дороге на Юг
17. Луна
18. Последний день в году
19. Леонид Агутин feat Владимир Пресняков-мл. - Аэропорты

EAC:

Exact Audio Copy V1.0 beta 3 from 29. August 2011
Отчёт EAC об извлечении, выполненном 8. ноября 2014, 14:41
Леонид Агутин / Серия «Grand Collection». Часть 2
Дисковод: Optiarc DVD RW AD-5200S   Adapter: 3  ID: 0
Режим чтения                 : Достоверность
Использование точного потока : Да
Отключение кэша аудио        : Да
Использование указателей C2  : Нет
Коррекция смещения при чтении                     : 48
Способность читать области Lead-in и Lead-out     : Нет
Заполнение пропущенных сэмплов тишиной            : Да
Удаление блоков с тишиной в начале и конце        : Нет
При вычислениях CRC использовались нулевые сэмплы : Да
Интерфейс                                         : Установленный внешний ASPI-интерфейс
Выходной формат          : Пользовательский кодировщик
Выбранный битрейт        : 768 kBit/s
Качество                 : Высокий
Добавление ID3-тега      : Нет
Утилита сжатия           : C:\Program Files\Exact Audio Copy\FLAC\FLAC.EXE
Дополнительные параметры : -6 -V -T "ARTIST=%artist%" -T "TITLE=%title%" -T "ALBUM=%albumtitle%" -T "DATE=%year%" -T "TRACKNUMBER=%tracknr%" -T "GENRE=%genre%" -T "COMMENT=%comment%" -T "BAND=%albuminterpret%" -T "ALBUMARTIST=%albuminterpret%" -T "COMPOSER=%composer%" %haslyrics%--tag-from-file=LYRICS="%lyricsfile%"%haslyrics% -T "DISCNUMBER=%cdnumber%" -T "TOTALDISCS=%totalcds%" -T "TOTALTRACKS=%numtracks%" %hascover%--picture="%coverfile%"%hascover% %source% -o %dest%
TOC извлечённого CD
     Трек |   Старт  | Длительность | Начальный сектор | Конечный сектор
    ---------------------------------------------------------------------
       1  |  0:00.00 |    4:03.24   |           0      |      18248
       2  |  4:03.24 |    4:25.02   |       18249      |      38125
       3  |  8:28.26 |    4:09.41   |       38126      |      56841
       4  | 12:37.67 |    4:42.31   |       56842      |      78022
       5  | 17:20.23 |    4:25.54   |       78023      |      97951
       6  | 21:46.02 |    4:13.15   |       97952      |     116941
       7  | 25:59.17 |    3:34.25   |      116942      |     133016
       8  | 29:33.42 |    4:02.34   |      133017      |     151200
       9  | 33:36.01 |    4:07.30   |      151201      |     169755
      10  | 37:43.31 |    4:11.31   |      169756      |     188611
      11  | 41:54.62 |    3:48.39   |      188612      |     205750
      12  | 45:43.26 |    3:31.10   |      205751      |     221585
      13  | 49:14.36 |    3:54.21   |      221586      |     239156
      14  | 53:08.57 |    5:09.17   |      239157      |     262348
      15  | 58:17.74 |    4:21.15   |      262349      |     281938
      16  | 62:39.14 |    3:25.54   |      281939      |     297367
      17  | 66:04.68 |    3:43.37   |      297368      |     314129
      18  | 69:48.30 |    4:49.44   |      314130      |     335848
      19  | 74:37.74 |    4:43.13   |      335849      |     357086
Характеристики диапазона извлечения и сообщения об ошибках
Выбранный диапазон
     Имя файла F:\LOSSLESS\Леонид Агутин\Новая папка\Леонид Агутин - Серия «Grand Collection». Часть 2.wav
     Пиковый уровень 97.9 %
     Скорость извлечения 4.6 X
     Качество диапазона 100.0 %
     CRC теста A5C8EDEE
     CRC копии A5C8EDEE
     Копирование... OK
Ошибок не произошло
AccurateRip: сводка
Трек  1  отсутствует в базе данных
Трек  2  отсутствует в базе данных
Трек  3  отсутствует в базе данных
Трек  4  отсутствует в базе данных
Трек  5  отсутствует в базе данных
Трек  6  отсутствует в базе данных
Трек  7  отсутствует в базе данных
Трек  8  отсутствует в базе данных
Трек  9  отсутствует в базе данных
Трек 10  отсутствует в базе данных
Трек 11  отсутствует в базе данных
Трек 12  отсутствует в базе данных
Трек 13  отсутствует в базе данных
Трек 14  отсутствует в базе данных
Трек 15  отсутствует в базе данных
Трек 16  отсутствует в базе данных
Трек 17  отсутствует в базе данных
Трек 18  отсутствует в базе данных
Трек 19  отсутствует в базе данных
Ни одного трека нет в базе AccurateRip
Конец отчёта
==== Контрольная сумма отчёта 40917F90BB9BAA494009212F24C5A383E1A39324E3861DD1F3615F65A4CEEF38 ====

2012 - Серия «Живая струна»

Страна-производитель диска: Россия
Год издания диска: 2012
Издатель (лейбл): Квадро-Диск
Номер по каталогу: KTL 12-763
Продолжительность: 01:13:49

01. Остров
02. Всё куда-то девалось
03. Ole' Ole'
04. Летний дождь
05. Всё ещё вернется
06. Мало, Мария
07. Всё только для тебя
08. По дороге на Юг
09. Пароход
10. Не унывай!
11. Полночи
12. Налило
13. Путник звёздных дорог
14. Little Jean
15. Дождь надоел
16. Бедная Марта
17. Не выходи из дома
18. Февраль

EAC:

Exact Audio Copy V1.0 beta 3 from 29. August 2011
Отчёт EAC об извлечении, выполненном 8. ноября 2014, 15:20
Леонид Агутин / Серия «Живая струна»
Дисковод: Optiarc DVD RW AD-5200S   Adapter: 3  ID: 0
Режим чтения                 : Достоверность
Использование точного потока : Да
Отключение кэша аудио        : Да
Использование указателей C2  : Нет
Коррекция смещения при чтении                     : 48
Способность читать области Lead-in и Lead-out     : Нет
Заполнение пропущенных сэмплов тишиной            : Да
Удаление блоков с тишиной в начале и конце        : Нет
При вычислениях CRC использовались нулевые сэмплы : Да
Интерфейс                                         : Установленный внешний ASPI-интерфейс
Выходной формат          : Пользовательский кодировщик
Выбранный битрейт        : 768 kBit/s
Качество                 : Высокий
Добавление ID3-тега      : Нет
Утилита сжатия           : C:\Program Files\Exact Audio Copy\FLAC\FLAC.EXE
Дополнительные параметры : -6 -V -T "ARTIST=%artist%" -T "TITLE=%title%" -T "ALBUM=%albumtitle%" -T "DATE=%year%" -T "TRACKNUMBER=%tracknr%" -T "GENRE=%genre%" -T "COMMENT=%comment%" -T "BAND=%albuminterpret%" -T "ALBUMARTIST=%albuminterpret%" -T "COMPOSER=%composer%" %haslyrics%--tag-from-file=LYRICS="%lyricsfile%"%haslyrics% -T "DISCNUMBER=%cdnumber%" -T "TOTALDISCS=%totalcds%" -T "TOTALTRACKS=%numtracks%" %hascover%--picture="%coverfile%"%hascover% %source% -o %dest%
TOC извлечённого CD
     Трек |   Старт  | Длительность | Начальный сектор | Конечный сектор
    ---------------------------------------------------------------------
       1  |  0:00.00 |    3:54.66   |           0      |      17615
       2  |  3:54.66 |    4:59.51   |       17616      |      40091
       3  |  8:54.42 |    3:36.68   |       40092      |      56359
       4  | 12:31.35 |    4:13.01   |       56360      |      75335
       5  | 16:44.36 |    3:53.42   |       75336      |      92852
       6  | 20:38.03 |    3:17.18   |       92853      |     107645
       7  | 23:55.21 |    3:48.06   |      107646      |     124751
       8  | 27:43.27 |    3:25.54   |      124752      |     140180
       9  | 31:09.06 |    3:34.25   |      140181      |     156255
      10  | 34:43.31 |    3:29.56   |      156256      |     171986
      11  | 38:13.12 |    4:07.39   |      171987      |     190550
      12  | 42:20.51 |    4:24.21   |      190551      |     210371
      13  | 46:44.72 |    4:49.35   |      210372      |     232081
      14  | 51:34.32 |    6:03.73   |      232082      |     259379
      15  | 57:38.30 |    4:02.26   |      259380      |     277555
      16  | 61:40.56 |    4:21.71   |      277556      |     297201
      17  | 66:02.52 |    3:30.58   |      297202      |     313009
      18  | 69:33.35 |    4:16.34   |      313010      |     332243
Характеристики диапазона извлечения и сообщения об ошибках
Выбранный диапазон
     Имя файла F:\LOSSLESS\Леонид Агутин\Новая папка\Леонид Агутин - Серия «Живая струна».wav
     Пиковый уровень 100.0 %
     Скорость извлечения 4.4 X
     Качество диапазона 100.0 %
     CRC теста 2E0D57E0
     CRC копии 2E0D57E0
     Копирование... OK
Ошибок не произошло
AccurateRip: сводка
Трек  1  точность не определена (достоверность 1)  [D4C8A4DB], AccurateRip вернул [565FA824]  (AR v2)
Трек  2  точность не определена (достоверность 1)  [D3EA21CD], AccurateRip вернул [7BB0E4AE]  (AR v2)
Трек  3  точность не определена (достоверность 1)  [F6EF2F23], AccurateRip вернул [7C6F500B]  (AR v2)
Трек  4  точность не определена (достоверность 1)  [D0F37163], AccurateRip вернул [29F90CA9]  (AR v2)
Трек  5  точность не определена (достоверность 1)  [CF16A87A], AccurateRip вернул [18028E21]  (AR v2)
Трек  6  точность не определена (достоверность 1)  [CFAF947F], AccurateRip вернул [9D7C2045]  (AR v2)
Трек  7  точность не определена (достоверность 1)  [C1D08410], AccurateRip вернул [F2EDA041]  (AR v2)
Трек  8  точность не определена (достоверность 1)  [7BFDF26D], AccurateRip вернул [6D7EF93D]  (AR v2)
Трек  9  точность не определена (достоверность 1)  [6BC6E541], AccurateRip вернул [4AF9B41F]  (AR v2)
Трек 10  точность не определена (достоверность 1)  [12B80175], AccurateRip вернул [5E4E72E4]  (AR v2)
Трек 11  точность не определена (достоверность 1)  [E6AF7129], AccurateRip вернул [F120B044]  (AR v2)
Трек 12  точность не определена (достоверность 1)  [476A702A], AccurateRip вернул [4B72481A]  (AR v2)
Трек 13  точность не определена (достоверность 1)  [75B889BC], AccurateRip вернул [06A47644]  (AR v2)
Трек 14  точность не определена (достоверность 1)  [85CD9811], AccurateRip вернул [9A249398]  (AR v2)
Трек 15  точность не определена (достоверность 1)  [9E3B2793], AccurateRip вернул [634BAECB]  (AR v2)
Трек 16  точность не определена (достоверность 1)  [90D624D2], AccurateRip вернул [2450BAE0]  (AR v2)
Трек 17  точность не определена (достоверность 1)  [6832A6FE], AccurateRip вернул [31AF9452]  (AR v2)
Трек 18  точность не определена (достоверность 1)  [24B923F1], AccurateRip вернул [D9B7BFA8]  (AR v2)
Ни один трек не прошёл проверки на точность
В вашей базе может быть иной вариант штамповки диска
Конец отчёта
==== Контрольная сумма отчёта 356751BBD7E9846803D7D08D2AA2BFB4A899F56C25203E44E28C24E8CFCF2891 ====

2013 - Тайна склеенных страниц [Deluxe Edition]

Страна-производитель диска: Россия
Год издания диска: 2013
Издатель (лейбл): Квадро-Диск
Номер по каталогу: UMGCD13-278
Продолжительность: 00:50:02

01. Пора домой
02. Леонид Агутин feat Thomas Nevergreen - Ай-ай-ай
03. Леонид Агутин feat Анжелика Варум - Авторское кино
04. Мама-река
05. Африка
06. Что происходит?
07. Насекомова
08. Ты не уйдёшь
09. Рио-де-Жанейро
10. Леонид Агутин feat Анжелика Варум - Твой голос [песня из фильма «Человек-амфибия»]
11. Тайна склеенных страниц
12. Время-вода [песня из фильма «Человек-амфибия»]

EAC:

Exact Audio Copy V1.0 beta 3 from 29. August 2011
Отчёт EAC об извлечении, выполненном 8. ноября 2014, 17:18
Леонид Агутин / Тайна склеенных страниц [Deluxe Edition]
Дисковод: Optiarc DVD RW AD-5200S   Adapter: 3  ID: 0
Режим чтения                 : Достоверность
Использование точного потока : Да
Отключение кэша аудио        : Да
Использование указателей C2  : Нет
Коррекция смещения при чтении                     : 48
Способность читать области Lead-in и Lead-out     : Нет
Заполнение пропущенных сэмплов тишиной            : Да
Удаление блоков с тишиной в начале и конце        : Нет
При вычислениях CRC использовались нулевые сэмплы : Да
Интерфейс                                         : Установленный внешний ASPI-интерфейс
Выходной формат          : Пользовательский кодировщик
Выбранный битрейт        : 768 kBit/s
Качество                 : Высокий
Добавление ID3-тега      : Нет
Утилита сжатия           : C:\Program Files\Exact Audio Copy\FLAC\FLAC.EXE
Дополнительные параметры : -6 -V -T "ARTIST=%artist%" -T "TITLE=%title%" -T "ALBUM=%albumtitle%" -T "DATE=%year%" -T "TRACKNUMBER=%tracknr%" -T "GENRE=%genre%" -T "COMMENT=%comment%" -T "BAND=%albuminterpret%" -T "ALBUMARTIST=%albuminterpret%" -T "COMPOSER=%composer%" %haslyrics%--tag-from-file=LYRICS="%lyricsfile%"%haslyrics% -T "DISCNUMBER=%cdnumber%" -T "TOTALDISCS=%totalcds%" -T "TOTALTRACKS=%numtracks%" %hascover%--picture="%coverfile%"%hascover% %source% -o %dest%
TOC извлечённого CD
     Трек |   Старт  | Длительность | Начальный сектор | Конечный сектор
    ---------------------------------------------------------------------
       1  |  0:00.00 |    3:31.47   |           0      |      15871
       2  |  3:31.47 |    3:38.54   |       15872      |      32275
       3  |  7:10.26 |    4:49.15   |       32276      |      53965
       4  | 11:59.41 |    5:09.26   |       53966      |      77166
       5  | 17:08.67 |    4:05.28   |       77167      |      95569
       6  | 21:14.20 |    4:25.60   |       95570      |     115504
       7  | 25:40.05 |    3:46.28   |      115505      |     132482
       8  | 29:26.33 |    4:39.39   |      132483      |     153446
       9  | 34:05.72 |    3:55.70   |      153447      |     171141
      10  | 38:01.67 |    3:42.73   |      171142      |     187864
      11  | 41:44.65 |    4:12.16   |      187865      |     206780
      12  | 45:57.06 |    4:05.23   |      206781      |     225178
Характеристики диапазона извлечения и сообщения об ошибках
Выбранный диапазон
     Имя файла F:\LOSSLESS\Леонид Агутин\Новая папка\Леонид Агутин - Тайна склеенных страниц [Deluxe Edition].wav
     Пиковый уровень 98.8 %
     Скорость извлечения 3.8 X
     Качество диапазона 100.0 %
     CRC теста 46611431
     CRC копии 46611431
     Копирование... OK
Ошибок не произошло
AccurateRip: сводка
Трек  1  : извлечено точно (доверие 1)  [E6DA6C8F]  (AR v2)
Трек  2  : извлечено точно (доверие 1)  [4F6C517E]  (AR v2)
Трек  3  : извлечено точно (доверие 1)  [CE1A560F]  (AR v2)
Трек  4  : извлечено точно (доверие 1)  [2A952A27]  (AR v2)
Трек  5  : извлечено точно (доверие 1)  [554288C8]  (AR v2)
Трек  6  : извлечено точно (доверие 1)  [49B8EDB3]  (AR v2)
Трек  7  : извлечено точно (доверие 1)  [B5CDD4E2]  (AR v2)
Трек  8  : извлечено точно (доверие 1)  [B971EEFB]  (AR v2)
Трек  9  : извлечено точно (доверие 1)  [27AE0659]  (AR v2)
Трек 10  : извлечено точно (доверие 1)  [5B8E7D89]  (AR v2)
Трек 11  : извлечено точно (доверие 1)  [F336F250]  (AR v2)
Трек 12  : извлечено точно (доверие 1)  [667BA5DB]  (AR v2)
Все треки извлечены точно
Конец отчёта
==== Контрольная сумма отчёта DA12BBC249037BE3333D2807871A27B7C31C2D68A8FA4E848C42FB22D4410A14 ====
-
Яндекс.Метрика
Рейтинг@Mail.ru