(Pop) Марина Журавлева - Перелётные птицы - 2013, FLAC (image+.cue), lossless

 

Создавать темы 28-Дек-2014 20:37

-Марина Журавлева - Перелётные птицы- Жанр: Pop
Носитель: CD
Страна-производитель диска: Россия
Год издания: 2013
Издатель (лейбл): Квадро-Диск
Номер по каталогу: UMGCD13-289
Страна: Россия
Аудиокодек: FLAC (*.flac)
Тип рипа: image+.cue
Битрейт аудио: lossless
Продолжительность: 01:04:22
Источник (релизер): vlad victorovich
Наличие сканов в содержимом раздачи: да-Треклист
01. Только не ты (3:37)
02. Небо плакало (4:19)
03. Берега (3:07)
04. Звезда (3:21)
05. Сердце знает (3:48)
06. Парашютики любви (3:35)
07. Сон березовый (4:36)
08. Мосты (3:44)
09. Перелетные птицы (4:04)
10. Без тебя, без тебя (4:40)
11. Однажды так уходит любовь (3:51)
12. Позвони на луну (3:18)
13. Мамины глаза (4:08)
14. Золотые жених и невеста (3:44)
15. Свеча догорает (3:16)
16. У той большой реки (4:03)
17. Первоклассница (3:12)-

Лог создания рипа (ЕАС)

Exact Audio Copy V1.0 beta 3 from 29. August 2011
Отчёт EAC об извлечении, выполненном 26. ноября 2013, 23:02
Журавлева Марина / Перелётные птицы
Дисковод: ASUS    DRW-24B3ST   Adapter: 1  ID: 1
Режим чтения                 : Достоверность
Использование точного потока : Да
Отключение кэша аудио        : Да
Использование указателей C2  : Нет
Коррекция смещения при чтении                     : 6
Способность читать области Lead-in и Lead-out     : Нет
Заполнение пропущенных сэмплов тишиной            : Да
Удаление блоков с тишиной в начале и конце        : Нет
При вычислениях CRC использовались нулевые сэмплы : Да
Интерфейс                                         : Встроенный Win32-интерфейс для Win NT/2000
Выходной формат : Внутренние WAV-операции
Формат сэмплов  : 44.100 Гц; 16 бит; стерео
TOC извлечённого CD
     Трек |   Старт  | Длительность | Начальный сектор | Конечный сектор
    ---------------------------------------------------------------------
       1  |  0:00.00 |    3:36.47   |           0      |      16246
       2  |  3:36.47 |    4:19.19   |       16247      |      35690
       3  |  7:55.66 |    3:06.74   |       35691      |      49714
       4  | 11:02.65 |    3:20.39   |       49715      |      64753
       5  | 14:23.29 |    3:47.59   |       64754      |      81837
       6  | 18:11.13 |    3:35.09   |       81838      |      97971
       7  | 21:46.22 |    4:36.05   |       97972      |     118676
       8  | 26:22.27 |    3:43.61   |      118677      |     135462
       9  | 30:06.13 |    4:03.73   |      135463      |     153760
      10  | 34:10.11 |    4:39.70   |      153761      |     174755
      11  | 38:50.06 |    3:51.09   |      174756      |     192089
      12  | 42:41.15 |    3:18.37   |      192090      |     206976
      13  | 45:59.52 |    4:07.54   |      206977      |     225555
      14  | 50:07.31 |    3:43.65   |      225556      |     242345
      15  | 53:51.21 |    3:15.62   |      242346      |     257032
      16  | 57:07.08 |    4:02.55   |      257033      |     275237
      17  | 61:09.63 |    3:11.68   |      275238      |     289630
Характеристики диапазона извлечения и сообщения об ошибках
Выбранный диапазон
     Имя файла C:\vlad victorovich\Журавлева Марина - Перелётные птицы.wav
     Пиковый уровень 100.0 %
     Скорость извлечения 3.2 X
     Качество диапазона 100.0 %
     CRC теста B1C3CDBC
     CRC копии B1C3CDBC
     Копирование... OK
Ошибок не произошло
AccurateRip: сводка
Трек  1  отсутствует в базе данных
Трек  2  отсутствует в базе данных
Трек  3  отсутствует в базе данных
Трек  4  отсутствует в базе данных
Трек  5  отсутствует в базе данных
Трек  6  отсутствует в базе данных
Трек  7  отсутствует в базе данных
Трек  8  отсутствует в базе данных
Трек  9  отсутствует в базе данных
Трек 10  отсутствует в базе данных
Трек 11  отсутствует в базе данных
Трек 12  отсутствует в базе данных
Трек 13  отсутствует в базе данных
Трек 14  отсутствует в базе данных
Трек 15  отсутствует в базе данных
Трек 16  отсутствует в базе данных
Трек 17  отсутствует в базе данных
Ни одного трека нет в базе AccurateRip
Конец отчёта
==== Контрольная сумма отчёта 7FCE9BD5D01CAC093EA078507844F12C3DC0472A6EF824F633C8A8F7B8FFFAAB ====

Скриншот спектра частот (Adobe Audition)

-
Яндекс.Метрика
Рейтинг@Mail.ru