Мастера меча онлайн II / Sword Art Online II (Ито Томохико) [TV+Special] [1-19 из 24+1] [2014 г.] [приключения, фэнтези] [HDTVRip] [720p]

 

Создавать темы 25-Дек-2014 06:14

- -Мастера меча онлайн II / Sword Art Online II- Год выпуска: 2014
Страна: Япония
Жанр: приключения, фэнтези
Продолжительность: 25 мин
Тип: TV
Режиссер: Ито Томохико
Озвучка: Профессиональная (многоголосая, закадровая) от Студия KANSAI
Студия: -Описание: Один из лучших игроков в сетевую РПГ - GunGale Online убит прямо посреди игры! Обычное дело? Да, если, конечно, гибнет только его персонаж, а не он сам!
Власти не на шутку встревожены произошедшим, им нужен умелец, способный проникнуть в игру и разузнать, как могло случиться подобное. Выбор падает... Ну разумеется, на Киригайю Казуто, кто же ещё может справиться с подобной задачей?- -Источник: HDTVRip
Контейнер: MP4
Видео кодек: H.264
Видео: 1280x720 (16:9), 1 835 kbps, 23,976 fps
Аудио RUS: AAC 192 kbps, 48 Khz, 2 ch-

Media Info

General
Format : MPEG-4
Format profile : Base Media
Codec ID : isom
File size : 349 MiB
Duration : 24mn 0s
Overall bit rate mode : Variable
Overall bit rate : 2 031 Kbps
Encoded date : UTC 2014-07-06 19:30:46
Tagged date : UTC 2014-07-06 19:30:46
Writing application : Yamb 2.1.0.0
Video
ID : 1
Format : AVC
Format/Info : Advanced Video Codec
Format profile : [email protected]
Format settings, CABAC : Yes
Format settings, ReFrames : 4 frames
Codec ID : avc1
Codec ID/Info : Advanced Video Coding
Duration : 23mn 59s
Bit rate : 1 835 Kbps
Maximum bit rate : 10.1 Mbps
Width : 1 280 pixels
Height : 720 pixels
Display aspect ratio : 16:9
Frame rate mode : Constant
Frame rate : 23.976 fps
Color space : YUV
Chroma subsampling : 4:2:0
Bit depth : 8 bits
Scan type : Progressive
Bits/(Pixel*Frame) : 0.083
Stream size : 315 MiB (90%)
Title : 264
Writing library : x264 core 129 r2245+729M 1a52e03
Encoding settings : cabac=1 / ref=4 / deblock=1:1:-1 / analyse=0x3:0x113 / me=umh / subme=9 / psy=1 / fade_compensate=0.00 / psy_rd=1.00:0.00 / mixed_ref=1 / me_range=24 / chroma_me=1 / trellis=2 / 8x8dct=1 / cqm=0 / deadzone=21,11 / fast_pskip=1 / chroma_qp_offset=-2 / threads=8 / lookahead_threads=1 / sliced_threads=0 / nr=0 / decimate=1 / interlaced=0 / bluray_compat=0 / constrained_intra=0 / fgo=0 / bframes=9 / b_pyramid=2 / b_adapt=2 / b_bias=0 / direct=1 / weightb=1 / open_gop=0 / weightp=2 / keyint=240 / keyint_min=24 / scenecut=40 / intra_refresh=0 / rc=crf / mbtree=0 / crf=18.0 / qcomp=0.72 / qpmin=0 / qpmax=69 / qpstep=4 / ip_ratio=1.40 / pb_ratio=1.30 / aq=1:0.85
Encoded date : UTC 2014-07-05 18:21:20
Tagged date : UTC 2014-07-06 19:34:31
Color primaries : BT.709
Transfer characteristics : BT.709
Matrix coefficients : BT.709
Audio
ID : 2
Format : AAC
Format/Info : Advanced Audio Codec
Format profile : LC
Codec ID : 40
Duration : 24mn 0s
Bit rate mode : Variable
Bit rate : 192 Kbps
Maximum bit rate : 199 Kbps
Channel(s) : 2 channels
Channel positions : Front: L R
Sampling rate : 48.0 KHz
Compression mode : Lossy
Delay relative to video : 83ms
Stream size : 33.0 MiB (9%)
Encoded date : UTC 2014-07-06 19:32:54
Tagged date : UTC 2014-07-06 19:34:31

Список эпизодов

01. Ружейный мир.
02. Ледяной стрелок.
03. Память крови.
04. ГГО.
05. Пистолет и Клинок.
06. Дуэль на пустоши.
07. Алые воспоминания.
08. Золотая пуля.
09. Дез Ган
10. Охотник за смертью.
11. Значение силы
12. Пуля призрака.
13. Призрачная пуля.
14. Один маленький шаг
14,5. Спешл
15. Озерная Королева
16. Правитель великанов
17. Экскалибур
18. Лесной домик.
19. Абсолютный меч.
20. Спящие рыцари.
21. Монумент мечников..
22. Конец Путешествия
23. Начало мечты
24. Розарий матери.

Скриншоты

Яндекс.Метрика
Рейтинг@Mail.ru