(Euro-Disco) [CD] Modern Talking - 30 - 2014, FLAC (tracks+.cue), lossless

 

Создавать темы 24-Дек-2014 18:28

-Modern Talking - 30- Жанр: EuroDisco
Носитель: CD
Страна-производитель диска: EU
Год издания: 2014
Издатель (лейбл): Sony Music
Номер по каталогу: 88875 00825 2
Страна исполнителя (группы): Germany
Аудиокодек: FLAC (*.flac)
Тип рипа: tracks+.cue
Битрейт аудио: lossless
Продолжительность: 01:17:42+01:15:53
Источник (релизер): thoms01
Наличие сканов в содержимом раздачи: да-Треклист
CD 1
01. Just We Two (Mona Lisa) - New Hit Version
02. TV Makes The Superstar - Remastered
03. Juliet - Remastered
04. Ready For The Victory - Remastered
05. Last Exit To Brooklyn - Remastered
06. Win The Race - Remastered
07. Don't Take Away My Heart - Remastered
08. China In Her Eyes - Remastered
09. Sexy Sexy Lover - Remastered
10. You Are Not Alone - Remastered
11. Brother Louie '98 - Remastered
12. You're My Heart, You're My Soul '98 - Remastered
13. In 100 Years - Remastered
14. Jet Airliner - Remastered
15. Give Me Peace On Earth - Remastered
16. Geronimo's Cadillac - Remastered
17. Atlantis Is Calling (S.O.S. For Love) - Remastered
18. Brother Louie - Remastered
19. Cheri Cheri Lady - Remastered
20. You Can Win If You Want - Remastered
21. You're My Heart, You're My Soul - Remastered

Лог EAC

Exact Audio Copy V1.0 beta 3 from 29. August 2011
EAC extraction logfile from 13. October 2014, 21:10
Modern Talking / 30 (The New Best Of Album!)
Used drive : PLEXTOR DVDR PX-891SA Adapter: 1 ID: 0
Read mode : SecureUtilize accurate stream : YesDefeat audio cache : YesMake use of C2 pointers : No
Read offset correction : 6Overread into Lead-In and Lead-Out : NoFill up missing offset samples with silence : YesDelete leading and trailing silent blocks : NoNull samples used in CRC calculations : YesUsed interface : Native Win32 interface for Win NT & 2000Gap handling : Appended to previous track
Used output format : User Defined EncoderSelected bitrate : 1024 kBit/sQuality : HighAdd ID3 tag : NoCommand line compressor : C:\Program Files (x86)\Exact Audio Copy\FLAC\FLAC.EXEAdditional command line options : -0 -V -T "ARTIST=%artist%" -T "TITLE=%title%" -T "ALBUM=%albumtitle%" -T "DATE=%year%" -T "TRACKNUMBER=%tracknr%" -T "TOTALTRACKS=%numtracks%" -T "GENRE=%genre%" -T "COMMENT=Naftamusic Release!" %source%
TOC of the extracted CD
Track | Start | Length | Start sector | End sector --------------------------------------------------------- 1 | 0:00.00 | 3:41.50 | 0 | 16624 2 | 3:41.50 | 3:45.41 | 16625 | 33540 3 | 7:27.16 | 3:38.29 | 33541 | 49919 4 | 11:05.45 | 3:32.40 | 49920 | 65859 5 | 14:38.10 | 3:18.02 | 65860 | 80711 6 | 17:56.12 | 3:36.70 | 80712 | 96981 7 | 21:33.07 | 3:55.52 | 96982 | 114658 8 | 25:28.59 | 3:47.33 | 114659 | 131716 9 | 29:16.17 | 3:34.26 | 131717 | 147792 10 | 32:50.43 | 3:42.34 | 147793 | 164476 11 | 36:33.02 | 3:37.22 | 164477 | 180773 12 | 40:10.24 | 3:50.62 | 180774 | 198085 13 | 44:01.11 | 3:58.06 | 198086 | 215941 14 | 47:59.17 | 4:21.45 | 215942 | 235561 15 | 52:20.62 | 4:14.48 | 235562 | 254659 16 | 56:35.35 | 3:19.08 | 254660 | 269592 17 | 59:54.43 | 3:51.12 | 269593 | 286929 18 | 63:45.55 | 3:43.09 | 286930 | 303663 19 | 67:28.64 | 3:47.33 | 303664 | 320721 20 | 71:16.22 | 3:46.71 | 320722 | 337742 21 | 75:03.18 | 3:19.23 | 337743 | 352690
Track 1
Filename E:\Nafta Releases\Modern Talking - 30 (The New Best Of Album! 2 CD 2014)[FLAC] - Naftamusic\CD 1\01 - Just We Two (New Hit Version).wav
Pre-gap length 0:00:02.00
Peak level 100.0 % Extraction speed 2.1 X Track quality 100.0 % Test CRC 2D40B7B7 Copy CRC 2D40B7B7 Track not present in AccurateRip database Copy OK
Track 2
Filename E:\Nafta Releases\Modern Talking - 30 (The New Best Of Album! 2 CD 2014)[FLAC] - Naftamusic\CD 1\02 - TV Makes The Superstar (Remastered).wav
Pre-gap length 0:00:02.00
Peak level 100.0 % Extraction speed 2.3 X Track quality 100.0 % Test CRC BBB92F62 Copy CRC BBB92F62 Track not present in AccurateRip database Copy OK
Track 3
Filename E:\Nafta Releases\Modern Talking - 30 (The New Best Of Album! 2 CD 2014)[FLAC] - Naftamusic\CD 1\03 - Juliet (Remastered).wav
Pre-gap length 0:00:02.00
Peak level 100.0 % Extraction speed 2.5 X Track quality 100.0 % Test CRC B854641B Copy CRC B854641B Track not present in AccurateRip database Copy OK
Track 4
Filename E:\Nafta Releases\Modern Talking - 30 (The New Best Of Album! 2 CD 2014)[FLAC] - Naftamusic\CD 1\04 - Ready For The Victory (Remastered).wav
Pre-gap length 0:00:02.00
Peak level 100.0 % Extraction speed 2.6 X Track quality 100.0 % Test CRC F29DD5CE Copy CRC F29DD5CE Track not present in AccurateRip database Copy OK
Track 5
Filename E:\Nafta Releases\Modern Talking - 30 (The New Best Of Album! 2 CD 2014)[FLAC] - Naftamusic\CD 1\05 - Last Exit To Brooklyn (Remastered).wav
Pre-gap length 0:00:02.00
Peak level 100.0 % Extraction speed 2.7 X Track quality 100.0 % Test CRC 76B13A04 Copy CRC 76B13A04 Track not present in AccurateRip database Copy OK
Track 6
Filename E:\Nafta Releases\Modern Talking - 30 (The New Best Of Album! 2 CD 2014)[FLAC] - Naftamusic\CD 1\06 - Win The Race (Remastered).wav
Pre-gap length 0:00:02.00
Peak level 100.0 % Extraction speed 2.9 X Track quality 100.0 % Test CRC A81D0041 Copy CRC A81D0041 Track not present in AccurateRip database Copy OK
Track 7
Filename E:\Nafta Releases\Modern Talking - 30 (The New Best Of Album! 2 CD 2014)[FLAC] - Naftamusic\CD 1\07 - Don't Take Away My Heart (Remastered).wav
Pre-gap length 0:00:02.00
Peak level 100.0 % Extraction speed 2.2 X Track quality 99.9 % Test CRC ABBBB6E5 Copy CRC ABBBB6E5 Track not present in AccurateRip database Copy OK
Track 8
Filename E:\Nafta Releases\Modern Talking - 30 (The New Best Of Album! 2 CD 2014)[FLAC] - Naftamusic\CD 1\08 - China In Her Eyes (Remastered).wav
Pre-gap length 0:00:02.00
Peak level 100.0 % Extraction speed 3.1 X Track quality 100.0 % Test CRC 038DA12E Copy CRC 038DA12E Track not present in AccurateRip database Copy OK
Track 9
Filename E:\Nafta Releases\Modern Talking - 30 (The New Best Of Album! 2 CD 2014)[FLAC] - Naftamusic\CD 1\09 - Sexy Sexy Lover (Remastered).wav
Pre-gap length 0:00:02.00
Peak level 100.0 % Extraction speed 3.3 X Track quality 100.0 % Test CRC D7F3112D Copy CRC D7F3112D Track not present in AccurateRip database Copy OK
Track 10
Filename E:\Nafta Releases\Modern Talking - 30 (The New Best Of Album! 2 CD 2014)[FLAC] - Naftamusic\CD 1\10 - You Are Not Alone (Remastered).wav
Pre-gap length 0:00:02.00
Peak level 100.0 % Extraction speed 2.5 X Track quality 99.9 % Test CRC 811AE43E Copy CRC 811AE43E Track not present in AccurateRip database Copy OK
Track 11
Filename E:\Nafta Releases\Modern Talking - 30 (The New Best Of Album! 2 CD 2014)[FLAC] - Naftamusic\CD 1\11 - Brother Louie '98 (Remastered).wav
Pre-gap length 0:00:02.00
Peak level 100.0 % Extraction speed 3.5 X Track quality 100.0 % Test CRC 160B124E Copy CRC 160B124E Track not present in AccurateRip database Copy OK
Track 12
Filename E:\Nafta Releases\Modern Talking - 30 (The New Best Of Album! 2 CD 2014)[FLAC] - Naftamusic\CD 1\12 - You're My Heart, You're My Soul '98 (Remastered).wav
Pre-gap length 0:00:02.00
Peak level 100.0 % Extraction speed 3.7 X Track quality 100.0 % Test CRC 710E5B95 Copy CRC 710E5B95 Track not present in AccurateRip database Copy OK
Track 13
Filename E:\Nafta Releases\Modern Talking - 30 (The New Best Of Album! 2 CD 2014)[FLAC] - Naftamusic\CD 1\13 - In 100 Years (Remastered).wav
Pre-gap length 0:00:02.00
Peak level 100.0 % Extraction speed 3.8 X Track quality 100.0 % Test CRC DBF1521B Copy CRC DBF1521B Track not present in AccurateRip database Copy OK
Track 14
Filename E:\Nafta Releases\Modern Talking - 30 (The New Best Of Album! 2 CD 2014)[FLAC] - Naftamusic\CD 1\14 - Jet Airliner (Remastered).wav
Pre-gap length 0:00:01.74
Peak level 100.0 % Extraction speed 2.9 X Track quality 99.9 % Test CRC F6383546 Copy CRC F6383546 Track not present in AccurateRip database Copy OK
Track 15
Filename E:\Nafta Releases\Modern Talking - 30 (The New Best Of Album! 2 CD 2014)[FLAC] - Naftamusic\CD 1\15 - Give Me Peace On Earth (Remastered).wav
Pre-gap length 0:00:02.00
Peak level 100.0 % Extraction speed 3.0 X Track quality 99.9 % Test CRC B357312E Copy CRC B357312E Track not present in AccurateRip database Copy OK
Track 16
Filename E:\Nafta Releases\Modern Talking - 30 (The New Best Of Album! 2 CD 2014)[FLAC] - Naftamusic\CD 1\16 - Geronimo's Cadillac (Remastered).wav
Pre-gap length 0:00:02.00
Peak level 100.0 % Extraction speed 4.0 X Track quality 100.0 % Test CRC 63ADC428 Copy CRC 63ADC428 Track not present in AccurateRip database Copy OK
Track 17
Filename E:\Nafta Releases\Modern Talking - 30 (The New Best Of Album! 2 CD 2014)[FLAC] - Naftamusic\CD 1\17 - Atlantis Is Calling (S.O.S. for Love) (Remastered).wav
Pre-gap length 0:00:02.00
Peak level 100.0 % Extraction speed 4.2 X Track quality 100.0 % Test CRC 64113AE7 Copy CRC 64113AE7 Track not present in AccurateRip database Copy OK
Track 18
Filename E:\Nafta Releases\Modern Talking - 30 (The New Best Of Album! 2 CD 2014)[FLAC] - Naftamusic\CD 1\18 - Brother Louie (Remastered).wav
Pre-gap length 0:00:02.00
Peak level 100.0 % Extraction speed 3.1 X Track quality 99.9 % Test CRC 3BD65AFF Copy CRC 3BD65AFF Track not present in AccurateRip database Copy OK
Track 19
Filename E:\Nafta Releases\Modern Talking - 30 (The New Best Of Album! 2 CD 2014)[FLAC] - Naftamusic\CD 1\19 - Cheri Cheri Lady (Remastered).wav
Pre-gap length 0:00:02.00
Peak level 100.0 % Extraction speed 4.3 X Track quality 100.0 % Test CRC 62447323 Copy CRC 62447323 Track not present in AccurateRip database Copy OK
Track 20
Filename E:\Nafta Releases\Modern Talking - 30 (The New Best Of Album! 2 CD 2014)[FLAC] - Naftamusic\CD 1\20 - You Can Win If You Want (Remastered).wav
Pre-gap length 0:00:02.00
Peak level 100.0 % Extraction speed 4.5 X Track quality 100.0 % Test CRC 75D17CDF Copy CRC 75D17CDF Track not present in AccurateRip database Copy OK
Track 21
Filename E:\Nafta Releases\Modern Talking - 30 (The New Best Of Album! 2 CD 2014)[FLAC] - Naftamusic\CD 1\21 - You're My Heart, You're My Soul (Remastered).wav
Pre-gap length 0:00:02.00
Peak level 100.0 % Extraction speed 4.4 X Track quality 100.0 % Test CRC D0E84913 Copy CRC D0E84913 Track not present in AccurateRip database Copy OK
None of the tracks are present in the AccurateRip database
No errors occurred
End of status report
==== Log checksum EA1DB71296185EE3726CB6ADA8B72D9A115942461E203CA224F17A5BAF9C1D0E ====

Cue-файл

REM GENRE DiscoREM DATE 2014REM DISCID 43125E15REM COMMENT "ExactAudioCopy v1.0b3"PERFORMER "Modern Talking"TITLE "30 (The New Best Of Album!)"FILE "01 - Just We Two (New Hit Version).wav" WAVE TRACK 01 AUDIO TITLE "Just We Two (New Hit Version)" PERFORMER "Modern Talking" INDEX 01 00:00:00 TRACK 02 AUDIO TITLE "TV Makes The Superstar (Remastered)" PERFORMER "Modern Talking" INDEX 00 03:39:50FILE "02 - TV Makes The Superstar (Remastered).wav" WAVE INDEX 01 00:00:00 TRACK 03 AUDIO TITLE "Juliet (Remastered)" PERFORMER "Modern Talking" INDEX 00 03:43:41FILE "03 - Juliet (Remastered).wav" WAVE INDEX 01 00:00:00 TRACK 04 AUDIO TITLE "Ready For The Victory (Remastered)" PERFORMER "Modern Talking" INDEX 00 03:36:29FILE "04 - Ready For The Victory (Remastered).wav" WAVE INDEX 01 00:00:00 TRACK 05 AUDIO TITLE "Last Exit To Brooklyn (Remastered)" PERFORMER "Modern Talking" INDEX 00 03:30:40FILE "05 - Last Exit To Brooklyn (Remastered).wav" WAVE INDEX 01 00:00:00 TRACK 06 AUDIO TITLE "Win The Race (Remastered)" PERFORMER "Modern Talking" INDEX 00 03:16:02FILE "06 - Win The Race (Remastered).wav" WAVE INDEX 01 00:00:00 TRACK 07 AUDIO TITLE "Don't Take Away My Heart (Remastered)" PERFORMER "Modern Talking" INDEX 00 03:34:70FILE "07 - Don't Take Away My Heart (Remastered).wav" WAVE INDEX 01 00:00:00 TRACK 08 AUDIO TITLE "China In Her Eyes (Remastered)" PERFORMER "Modern Talking" INDEX 00 03:53:52FILE "08 - China In Her Eyes (Remastered).wav" WAVE INDEX 01 00:00:00 TRACK 09 AUDIO TITLE "Sexy Sexy Lover (Remastered)" PERFORMER "Modern Talking" INDEX 00 03:45:33FILE "09 - Sexy Sexy Lover (Remastered).wav" WAVE INDEX 01 00:00:00 TRACK 10 AUDIO TITLE "You Are Not Alone (Remastered)" PERFORMER "Modern Talking" INDEX 00 03:32:26FILE "10 - You Are Not Alone (Remastered).wav" WAVE INDEX 01 00:00:00 TRACK 11 AUDIO TITLE "Brother Louie '98 (Remastered)" PERFORMER "Modern Talking" INDEX 00 03:40:34FILE "11 - Brother Louie '98 (Remastered).wav" WAVE INDEX 01 00:00:00 TRACK 12 AUDIO TITLE "You're My Heart, You're My Soul '98 (Remastered)" PERFORMER "Modern Talking" INDEX 00 03:35:22FILE "12 - You're My Heart, You're My Soul '98 (Remastered).wav" WAVE INDEX 01 00:00:00 TRACK 13 AUDIO TITLE "In 100 Years (Remastered)" PERFORMER "Modern Talking" INDEX 00 03:48:62FILE "13 - In 100 Years (Remastered).wav" WAVE INDEX 01 00:00:00 TRACK 14 AUDIO TITLE "Jet Airliner (Remastered)" PERFORMER "Modern Talking" INDEX 00 03:56:07FILE "14 - Jet Airliner (Remastered).wav" WAVE INDEX 01 00:00:00 TRACK 15 AUDIO TITLE "Give Me Peace On Earth (Remastered)" PERFORMER "Modern Talking" INDEX 00 04:19:45FILE "15 - Give Me Peace On Earth (Remastered).wav" WAVE INDEX 01 00:00:00 TRACK 16 AUDIO TITLE "Geronimo's Cadillac (Remastered)" PERFORMER "Modern Talking" INDEX 00 04:12:48FILE "16 - Geronimo's Cadillac (Remastered).wav" WAVE INDEX 01 00:00:00 TRACK 17 AUDIO TITLE "Atlantis Is Calling (S.O.S. for Love) (Remastered)" PERFORMER "Modern Talking" INDEX 00 03:17:08FILE "17 - Atlantis Is Calling (S.O.S. for Love) (Remastered).wav" WAVE INDEX 01 00:00:00 TRACK 18 AUDIO TITLE "Brother Louie (Remastered)" PERFORMER "Modern Talking" INDEX 00 03:49:12FILE "18 - Brother Louie (Remastered).wav" WAVE INDEX 01 00:00:00 TRACK 19 AUDIO TITLE "Cheri Cheri Lady (Remastered)" PERFORMER "Modern Talking" INDEX 00 03:41:09FILE "19 - Cheri Cheri Lady (Remastered).wav" WAVE INDEX 01 00:00:00 TRACK 20 AUDIO TITLE "You Can Win If You Want (Remastered)" PERFORMER "Modern Talking" INDEX 00 03:45:33FILE "20 - You Can Win If You Want (Remastered).wav" WAVE INDEX 01 00:00:00 TRACK 21 AUDIO TITLE "You're My Heart, You're My Soul (Remastered)" PERFORMER "Modern Talking" INDEX 00 03:44:71FILE "21 - You're My Heart, You're My Soul (Remastered).wav" WAVE INDEX 01 00:00:00
-

CD 2

Треклист
01. Brother Louie - Bassflow 3.0 Single Mix
02. Give Me Peace On Earth - New Hit Version
03. Just Like An Angel - New Hit Version
04. You're The Lady Of My Heart - New Hit Version
05. TV Makes The Superstar - Alternative Single Version
06. Brother Louie '99 - DJ Cappiccio Radio Mix
07. Brother Louie - Bassflow 3.0 Extended Mix
08. You're My Heart, You're My Soul - Paul Masterson Dub
09. You're My Heart, You're My Soul - Extended Version - So 80's Remaster By Blank & Jones
10. 30th Anniversary Megamix

Лог EAC

Exact Audio Copy V1.0 beta 3 from 29. August 2011
EAC extraction logfile from 13. October 2014, 22:15
Modern Talking / 30 (The New Best Of Album!)
Used drive : PLEXTOR DVDR PX-891SA Adapter: 1 ID: 0
Read mode : SecureUtilize accurate stream : YesDefeat audio cache : YesMake use of C2 pointers : No
Read offset correction : 6Overread into Lead-In and Lead-Out : NoFill up missing offset samples with silence : YesDelete leading and trailing silent blocks : NoNull samples used in CRC calculations : YesUsed interface : Native Win32 interface for Win NT & 2000Gap handling : Appended to previous track
Used output format : User Defined EncoderSelected bitrate : 1024 kBit/sQuality : HighAdd ID3 tag : NoCommand line compressor : C:\Program Files (x86)\Exact Audio Copy\FLAC\FLAC.EXEAdditional command line options : -0 -V -T "ARTIST=%artist%" -T "TITLE=%title%" -T "ALBUM=%albumtitle%" -T "DATE=%year%" -T "TRACKNUMBER=%tracknr%" -T "TOTALTRACKS=%numtracks%" -T "GENRE=%genre%" -T "COMMENT=Naftamusic Release!" %source%
TOC of the extracted CD
Track | Start | Length | Start sector | End sector --------------------------------------------------------- 1 | 0:00.00 | 3:47.74 | 0 | 17098 2 | 3:47.74 | 4:18.40 | 17099 | 36488 3 | 8:06.39 | 3:06.50 | 36489 | 50488 4 | 11:13.14 | 3:35.25 | 50489 | 66638 5 | 14:48.39 | 3:16.07 | 66639 | 81345 6 | 18:04.46 | 3:52.32 | 81346 | 98777 7 | 21:57.03 | 6:40.10 | 98778 | 128787 8 | 28:37.13 | 6:52.35 | 128788 | 159722 9 | 35:29.48 | 5:35.33 | 159723 | 184880 10 | 41:05.06 | 35:06.10 | 184881 | 342840
Track 1
Filename E:\Nafta Releases\Modern Talking - 30 (The New Best Of Album! 2 CD 2014)[FLAC] - Naftamusic\CD 2\01 - Brother Louie (Bassflow 3.0 Single Mix).wav
Pre-gap length 0:00:02.00
Peak level 100.0 % Extraction speed 2.1 X Track quality 100.0 % Test CRC 48589A75 Copy CRC 48589A75 Track not present in AccurateRip database Copy OK
Track 2
Filename E:\Nafta Releases\Modern Talking - 30 (The New Best Of Album! 2 CD 2014)[FLAC] - Naftamusic\CD 2\02 - Give Me Peace On Earth (New Hit Version).wav
Pre-gap length 0:00:02.00
Peak level 100.0 % Extraction speed 2.4 X Track quality 100.0 % Test CRC 954BCA36 Copy CRC 954BCA36 Track not present in AccurateRip database Copy OK
Track 3
Filename E:\Nafta Releases\Modern Talking - 30 (The New Best Of Album! 2 CD 2014)[FLAC] - Naftamusic\CD 2\03 - Just Like An Angel (New Hit Version).wav
Pre-gap length 0:00:02.00
Peak level 100.0 % Extraction speed 2.4 X Track quality 100.0 % Test CRC 3BB797EF Copy CRC 3BB797EF Track not present in AccurateRip database Copy OK
Track 4
Filename E:\Nafta Releases\Modern Talking - 30 (The New Best Of Album! 2 CD 2014)[FLAC] - Naftamusic\CD 2\04 - You're The Lady Of My Heart (New Hit Version).wav
Pre-gap length 0:00:02.00
Peak level 100.0 % Extraction speed 2.6 X Track quality 100.0 % Test CRC 6A629E08 Copy CRC 6A629E08 Track not present in AccurateRip database Copy OK
Track 5
Filename E:\Nafta Releases\Modern Talking - 30 (The New Best Of Album! 2 CD 2014)[FLAC] - Naftamusic\CD 2\05 - TV Makes The Superstar (Alternative Single Version).wav
Pre-gap length 0:00:02.00
Peak level 100.0 % Extraction speed 2.7 X Track quality 100.0 % Test CRC E9828B3C Copy CRC E9828B3C Track not present in AccurateRip database Copy OK
Track 6
Filename E:\Nafta Releases\Modern Talking - 30 (The New Best Of Album! 2 CD 2014)[FLAC] - Naftamusic\CD 2\06 - Brother Louie '99 (DJ Cappiccio Radio Mix).wav
Pre-gap length 0:00:02.00
Peak level 100.0 % Extraction speed 3.0 X Track quality 100.0 % Test CRC FAA88AE9 Copy CRC FAA88AE9 Track not present in AccurateRip database Copy OK
Track 7
Filename E:\Nafta Releases\Modern Talking - 30 (The New Best Of Album! 2 CD 2014)[FLAC] - Naftamusic\CD 2\07 - Brother Louie (Bassflow 3.0 Extended Mix).wav
Pre-gap length 0:00:02.00
Peak level 100.0 % Extraction speed 3.3 X Track quality 100.0 % Test CRC 78CB7C1E Copy CRC 78CB7C1E Track not present in AccurateRip database Copy OK
Track 8
Filename E:\Nafta Releases\Modern Talking - 30 (The New Best Of Album! 2 CD 2014)[FLAC] - Naftamusic\CD 2\08 - Your'e My Heart, Your'e My Soul (Paul Masterson Dub).wav
Pre-gap length 0:00:02.00
Peak level 100.0 % Extraction speed 3.6 X Track quality 100.0 % Test CRC 0E902D26 Copy CRC 0E902D26 Track not present in AccurateRip database Copy OK
Track 9
Filename E:\Nafta Releases\Modern Talking - 30 (The New Best Of Album! 2 CD 2014)[FLAC] - Naftamusic\CD 2\09 - You're My Heart, You're My Soul (Extended Version - So 80's Remaster by Blank & Jones).wav
Pre-gap length 0:00:02.00
Peak level 100.0 % Extraction speed 3.7 X Track quality 100.0 % Test CRC 4D68FA4D Copy CRC 4D68FA4D Track not present in AccurateRip database Copy OK
Track 10
Filename E:\Nafta Releases\Modern Talking - 30 (The New Best Of Album! 2 CD 2014)[FLAC] - Naftamusic\CD 2\10 - ''30th Annivesary Megamix 2014-2015''.wav
Pre-gap length 0:00:02.00
Peak level 100.0 % Extraction speed 4.7 X Track quality 100.0 % Test CRC 628B2E55 Copy CRC 628B2E55 Track not present in AccurateRip database Copy OK
None of the tracks are present in the AccurateRip database
No errors occurred
End of status report
==== Log checksum 4408D9255F0902CBD697B11B8975661869CA32C409194B07F510272012BB6141 ====

Cue-файл

REM GENRE DiscoREM DATE 2014REM DISCID 8F11DB0AREM COMMENT "ExactAudioCopy v1.0b3"PERFORMER "Modern Talking"TITLE "30 (The New Best Of Album!)"FILE "01 - Brother Louie (Bassflow 3.0 Single Mix).wav" WAVE TRACK 01 AUDIO TITLE "Brother Louie (Bassflow 3.0 Single Mix)" PERFORMER "Modern Talking" INDEX 01 00:00:00 TRACK 02 AUDIO TITLE "Give Me Peace On Earth (New Hit Version)" PERFORMER "Modern Talking" INDEX 00 03:45:74FILE "02 - Give Me Peace On Earth (New Hit Version).wav" WAVE INDEX 01 00:00:00 TRACK 03 AUDIO TITLE "Just Like An Angel (New Hit Version)" PERFORMER "Modern Talking" INDEX 00 04:16:40FILE "03 - Just Like An Angel (New Hit Version).wav" WAVE INDEX 01 00:00:00 TRACK 04 AUDIO TITLE "You're The Lady Of My Heart (New Hit Version)" PERFORMER "Modern Talking" INDEX 00 03:04:50FILE "04 - You're The Lady Of My Heart (New Hit Version).wav" WAVE INDEX 01 00:00:00 TRACK 05 AUDIO TITLE "TV Makes The Superstar (Alternative Single Version)" PERFORMER "Modern Talking" INDEX 00 03:33:25FILE "05 - TV Makes The Superstar (Alternative Single Version).wav" WAVE INDEX 01 00:00:00 TRACK 06 AUDIO TITLE "Brother Louie '99 (DJ Cappiccio Radio Mix)" PERFORMER "Modern Talking" INDEX 00 03:14:07FILE "06 - Brother Louie '99 (DJ Cappiccio Radio Mix).wav" WAVE INDEX 01 00:00:00 TRACK 07 AUDIO TITLE "Brother Louie (Bassflow 3.0 Extended Mix)" PERFORMER "Modern Talking" INDEX 00 03:50:32FILE "07 - Brother Louie (Bassflow 3.0 Extended Mix).wav" WAVE INDEX 01 00:00:00 TRACK 08 AUDIO TITLE "You're My Heart, You're My Soul (Paul Masterson Dub)" PERFORMER "Modern Talking" INDEX 00 06:38:10FILE "08 - You're My Heart, You're My Soul (Paul Masterson Dub).wav" WAVE INDEX 01 00:00:00 TRACK 09 AUDIO TITLE "You're My Heart, You're My Soul (Extended Version - So 80's Remaster by Blank..." PERFORMER "Modern Talking" INDEX 00 06:50:35FILE "09 - You're My Heart, You're My Soul (Extended Version - So 80's Remaster by Blank & Jones).wav" WAVE INDEX 01 00:00:00 TRACK 10 AUDIO TITLE "'30th Anniversary Megamix 2014-2015'" PERFORMER "Modern Talking" INDEX 00 05:33:33FILE "10 - ''30th Anniversary Megamix 2014-2015''.wav" WAVE INDEX 01 00:00:00
-
Яндекс.Метрика
Рейтинг@Mail.ru