Пингвины Мадагаскара / Penguins of Madagascar (Эрик Дарнелл / Eric Darnell, Саймон Дж. Смит / Simon J. Smith) [2014 г., мультфильм, комедия, приключения, семейный, CAMRip PROPER] Dub + Original (Eng)

 

Создавать темы 24-Дек-2014 10:07

-Пингвины Мадагаскара / Penguins of Madagascar- Производство: США, DreamWorks Animation, Pacific Data Images (PDI)
Год выпуска: 2014 г.
Жанр: мультфильм, комедия, приключения, семейный
Продолжительность: 01:20:49
Мировая премьера: 8 ноября 2014
Российская премьера: 27 ноября 2014, «Двадцатый Век Фокс СНГ»
Дата выхода DVD: 5 марта 2015, «Двадцатый Век Фокс СНГ»
Дата выхода Blu-Ray: 5 марта 2015, «Двадцатый Век Фокс СНГ»
Перевод: Профессиональный (полное дублирование)
Оригинальный аудиопоток: английский-Режиссер: Эрик Дарнелл / Eric Darnell, Саймон Дж. Смит / Simon J. Smith
В ролях: Том МакГрат, Крис Миллер, Кристофер Найтс, Бенедикт Камбербэтч, Петер Стормаре, Джон Малкович, Кен Жонг, Аннет Махендру-Описание: Четвёрка пингвинов-шпионов — Шкипер, Ковальски, Рико и Прапор — объединяется с командой «Северный ветер», помогающей беззащитным животным. Им предстоит остановить злобного осьминога, доктора Октавиуса Брайна, желающего уничтожить этот мир…- -Качество видео: CAMRip PROPER
Контейнер: AVI
Видео кодек: XviD
Аудио кодек: MP3
Видео: 712x384 (1.85:1), 29.970 fps, XviD MPEG-4 ~2247 kbps avg, 0.27 bit/pixel
Аудио: 44.100 kHz, MPEG Layer 3, 2 ch, ~128.00 kbps avg - Rus
Аудио #2: 48 kHz, MPEG Layer 3, 2 ch, ~128.00 kbps avg - Eng
Cубтитры: отсутствуют
Примечание: отсутствует примерно 30 секунд перевода!
Сравнение скриншотов CAMRip и CAMRip Proper

Media Info

General
Complete name : D:\PinvuiHy.s.Madaga7cara.2014.D.CAMRip.Proper.avi
Format : AVI
Format/Info : Audio Video Interleave
File size : 1.45 GiB
Duration : 1h 22mn
Overall bit rate : 2 521 Kbps
Writing application : VirtualDubMod 1.5.10.2 (build 2540/release)
Writing library : VirtualDubMod build 2540/release
Video
ID : 0
Format : MPEG-4 Visual
Format profile : Advanced [email protected]
Format settings, BVOP : 2
Format settings, QPel : No
Format settings, GMC : No warppoints
Format settings, Matrix : Default (H.263)
Muxing mode : Packed bitstream
Codec ID : XVID
Codec ID/Hint : XviD
Duration : 1h 22mn
Bit rate : 2 248 Kbps
Width : 712 pixels
Height : 384 pixels
Display aspect ratio : 1.85:1
Frame rate : 29.970 fps
Color space : YUV
Chroma subsampling : 4:2:0
Bit depth : 8 bits
Scan type : Progressive
Compression mode : Lossy
Bits/(Pixel*Frame) : 0.274
Stream size : 1.29 GiB (89%)
Writing library : XviD 65
Audio #1
ID : 1
Format : MPEG Audio
Format version : Version 1
Format profile : Layer 3
Codec ID : 55
Codec ID/Hint : MP3
Duration : 1h 22mn
Bit rate mode : Constant
Bit rate : 128 Kbps
Channel(s) : 2 channels
Sampling rate : 44.1 KHz
Compression mode : Lossy
Stream size : 75.5 MiB (5%)
Alignment : Split accross interleaves
Interleave, duration : 33 ms (1.00 video frame)
Interleave, preload duratio : 500 ms
Audio #2
ID : 2
Format : MPEG Audio
Format version : Version 1
Format profile : Layer 3
Codec ID : 55
Codec ID/Hint : MP3
Duration : 1h 22mn
Bit rate mode : Constant
Bit rate : 128 Kbps
Channel(s) : 2 channels
Sampling rate : 48.0 KHz
Compression mode : Lossy
Stream size : 75.5 MiB (5%)
Alignment : Aligned on interleaves
Interleave, duration : 33 ms (1.00 video frame)
Interleave, preload duratio : 504 ms

Скриншоты

Яндекс.Метрика
Рейтинг@Mail.ru