Стрелки - Gold (1999) [APE|Lossless]<Pop>

 

Создавать темы 21-Дек-2014 21:59

-Стрелки - Gold (1999)- Год: 1999
Жанр: Pop
Продолжительность: 01:11:27
Тип рипа: image+.cue
Кодек: APE
Битрейт: Lossless
Треклист:
01. Ты выбираешь сам 03:51
02. Подружки и друзья 03:34
03. Красавчик 03:40
04. Ты бросил меня 04:33
05. На вечеринке 04:36
06. Сестрёнка 04:25
07. Ты не со мной 04:06
08. Дай мне 03:53
09. Курортный роман 04:13
10. Первый учитель 04:32
11. Мелочи жизни 04:03
12. Не смей 04:11
13. У нас всё будет по-другому 04:32
14. Шерочка с Машерочкой 03:51
15. Оле, оле, оле 03:40
16. Папа, гуд-бай 05:01
17. Москва 04:37

Отчёт ЕАС&#58;

Exact Audio Copy V0.99 prebeta 4 from 23. January 2008
Отчёт EAC об извлечении, выполненном 21. мая 2009, 21:15
Стрелки / Gold
Дисковод: _NEC DVD_RW ND-4551A Adapter: 5 ID: 0
Режим чтения : Достоверность
Использование точного потока : Да
Отключение кэша аудио : Да
Использование указателей C2 : Нет
Коррекция смещения при чтении : 48
Способность читать области Lead-in и Lead-out : Нет
Заполнение пропущенных сэмплов тишиной : Да
Удаление блоков с тишиной в начале и конце : Нет
При вычислениях CRC использовались нулевые сэмплы : Да
Интерфейс : Установленный внешний ASPI-интерфейс
Выходной формат : Внутренние WAV-операции
Формат сэмплов : 44.100 Гц; 16 бит; стерео
TOC извлечённого CD
Трек | Старт | Длительность | Начальный сектор | Конечный сектор
---------------------------------------------------------------------
1 | 0:00.00 | 3:51.33 | 0 | 17357
2 | 3:51.33 | 3:34.51 | 17358 | 33458
3 | 7:26.09 | 3:40.74 | 33459 | 50032
4 | 11:07.08 | 4:33.32 | 50033 | 70539
5 | 15:40.40 | 4:36.35 | 70540 | 91274
6 | 20:17.00 | 4:25.40 | 91275 | 111189
7 | 24:42.40 | 4:06.50 | 111190 | 129689
8 | 28:49.15 | 3:53.69 | 129690 | 147233
9 | 32:43.09 | 4:13.18 | 147234 | 166226
10 | 36:56.27 | 4:32.45 | 166227 | 186671
11 | 41:28.72 | 4:03.13 | 186672 | 204909
12 | 45:32.10 | 4:11.38 | 204910 | 223772
13 | 49:43.48 | 4:32.62 | 223773 | 244234
14 | 54:16.35 | 3:51.47 | 244235 | 261606
15 | 58:08.07 | 3:40.65 | 261607 | 278171
16 | 61:48.72 | 5:01.52 | 278172 | 300798
17 | 66:50.49 | 4:37.07 | 300799 | 321580
Характеристики диапазона извлечения и сообщения об ошибках
Выбранный диапазон
Имя файла D:\Downloads\Музыка\Стрелки\1999 Gold\Стрелки - Gold.wav
Пиковый уровень 100.0 %
Качество диапазона 100.0 %
CRC копии C5C891EC
Копирование... OK
Ошибок не произошло
Конец отчёта

Отчёт auCDtect Task manager&#58;

-----------------------
DON'T MODIFY THIS FILE
-----------------------
PERFORMER: auCDtect Task Manager, ver. 1.6.0 RC1 build 1.6.0.1
Copyright (c) 2008-2010 y-soft. All rights reserved
http://y-soft.org
ANALYZER: auCDtect: CD records authenticity detector, version 0.8.2
Copyright (c) 2004 Oleg Berngardt. All rights reserved.
Copyright (c) 2004 Alexander Djourik. All rights reserved.
FILE: Стрелки - Gold.ape
  Size: 512541900 Hash: DE5A9DEF98239C500E27471D179F54A2 Accuracy: -m0
  Conclusion: CDDA 100%
  Signature: 1AFD053387F6C74A41E2A041F4396A6C9A50B3C9
-
Яндекс.Метрика
Рейтинг@Mail.ru