Дискотека Авария - Девушка за рулём (2014) [FLAC|Lossless]<Pop>

 

Создавать темы 21-Дек-2014 21:59

-Дискотека Авария - Девушка за рулём (2014)- Год: 2014
Жанр: Pop
Продолжительность: 00:41:02
Издатель (лейбл): Студия Монолит
Номер по каталогу: MT 001091-443-1
Тип рипа: image+.cue
Кодек: FLAC
Битрейт: Lossless
Треклист:
01. #ЛайкМи
02. Качели
03. В тишине
04. К.У.К.Л.А. (Chin Kong Production Mix)
05. Девушка за рулём
06. Ноги - ноги
07. Самуи
08. Музыка электро
09. После школы
10. До свиданья, лето!
11. В тишине (Радио версия)

Отчёт ЕАС&#58;

Exact Audio Copy V1.0 beta 1 from 15. November 2010
EAC extraction logfile from 18. October 2014, 23:23
Дискотека Авария / Девушка за рулём
Used drive  : PIONEER DVD-RW  DVR-212   Adapter: 1  ID: 0
Read mode               : Secure
Utilize accurate stream : Yes
Defeat audio cache      : Yes
Make use of C2 pointers : No
Read offset correction                      : 48
Overread into Lead-In and Lead-Out          : No
Fill up missing offset samples with silence : Yes
Delete leading and trailing silent blocks   : No
Null samples used in CRC calculations       : Yes
Used interface                              : Native Win32 interface for Win NT & 2000
Used output format : Internal WAV Routines
Sample format      : 44.100 Hz; 16 Bit; Stereo
TOC of the extracted CD
     Track |   Start  |  Length  | Start sector | End sector
    ---------------------------------------------------------
        1  |  0:00.00 |  3:31.39 |         0    |    15863
        2  |  3:31.39 |  3:49.05 |     15864    |    33043
        3  |  7:20.44 |  3:54.37 |     33044    |    50630
        4  | 11:15.06 |  3:46.11 |     50631    |    67591
        5  | 15:01.17 |  4:02.00 |     67592    |    85741
        6  | 19:03.17 |  3:31.39 |     85742    |   101605
        7  | 22:34.56 |  3:43.25 |    101606    |   118355
        8  | 26:18.06 |  3:56.28 |    118356    |   136083
        9  | 30:14.34 |  2:37.48 |    136084    |   147906
       10  | 32:52.07 |  4:47.00 |    147907    |   169431
       11  | 37:39.07 |  3:22.37 |    169432    |   184618
Range status and errors
Selected range
     Filename F:\FLAC (bruk67)\Дискотека Авария - Девушка за рулём (2014)\Дискотека Авария - Девушка за рулём.wav
     Peak level 99.8 %
     Extraction speed 0.2 X
     Range quality 99.9 %
     Test CRC D328A38C
     Copy CRC D328A38C
     Copy OK
No errors occurred
AccurateRip summary
Track  1  not present in database
Track  2  not present in database
Track  3  not present in database
Track  4  not present in database
Track  5  not present in database
Track  6  not present in database
Track  7  not present in database
Track  8  not present in database
Track  9  not present in database
Track 10  not present in database
Track 11  not present in database
None of the tracks are present in the AccurateRip database
End of status report
==== Log checksum 49323AC5DC073AE3C0E79BB22AED97B062C4870E05D8B2915FAA0BD4EC24A4B3 ====

Отчёт auCDtect Task manager&#58;

-----------------------
DON'T MODIFY THIS FILE
-----------------------
PERFORMER: auCDtect Task Manager, ver. 1.6.0 RC1 build 1.6.0.1
Copyright (c) 2008-2010 y-soft. All rights reserved
http://y-soft.org
ANALYZER: auCDtect: CD records authenticity detector, version 0.8.2
Copyright (c) 2004 Oleg Berngardt. All rights reserved.
Copyright (c) 2004 Alexander Djourik. All rights reserved.
FILE: Дискотека Авария - Девушка за рулём.flac
  Size: 322612962 Hash: F95D2C5D2561047203E34211D847EEA8 Accuracy: -m0
  Conclusion: CDDA 100%
  Signature: 01A2E0FE3C899EB5A51D8E801365FB4B49ABE10A
-
Яндекс.Метрика
Рейтинг@Mail.ru