Вячеслав Добрынин - Никто тебя не любит так, как я (1994) [APE|Lossless]<Pop>

 

Создавать темы 21-Дек-2014 21:59

-Вячеслав Добрынин - Никто тебя не любит так, как я (1994)- -Год: 1994
Жанр: Pop
Продолжительность: 00:58:13
Страна: Russia
Лейбл: ℗&© 1984 Апрелевка Саунд Прдакшн
Made By: Solo Florentin Music
Каталожный №: ASP 94008CD
Кодек: APE (image+.cue+.log)
Битрейт: Lossless
Сканы: комплект
Автор рипа: digital2015-Треклист:
01 Никто Тебя Не Любит Так, Как Я
02 Случайная Ночь
03 Не Берите В Голову
04 Наша Маленькая Квартира
05 Я Свое Отгулял
06 Качается Вагон
07 Ах, Какая Женщина
08 Капитан Запаса
09 Песня О Жизни
10 Хобби
11 Твой Взгляд
12 Первая Ошибка
13 Одинокая
14 Сорок Лет-

Содержание индексной карты (.cue&#41;&#58;

REM GENRE Pop
REM DATE 1994
REM DISCID AC0DA40E
REM COMMENT "ExactAudioCopy v0.99pb5"
PERFORMER "Вячеслав Добрынин"
TITLE "Никто тебя не любит так, как я"
FILE "01. Вячеслав Добрынин - Никто тебя не любит так, как я (1994).ape" WAVE
  TRACK 01 AUDIO
    TITLE "Никто тебя не любит так, как я"
    PERFORMER "Вячеслав Добрынин"
    INDEX 01 00:00:00
  TRACK 02 AUDIO
    TITLE "Случайная ночь"
    PERFORMER "Вячеслав Добрынин"
    INDEX 00 05:00:50
    INDEX 01 05:04:30
  TRACK 03 AUDIO
    TITLE "Не берите в голову"
    PERFORMER "Вячеслав Добрынин"
    INDEX 00 08:38:10
    INDEX 01 08:41:65
  TRACK 04 AUDIO
    TITLE "Наша маленькая квартира"
    PERFORMER "Вячеслав Добрынин"
    INDEX 00 13:07:25
    INDEX 01 13:11:00
  TRACK 05 AUDIO
    TITLE "Я своё отгулял"
    PERFORMER "Вячеслав Добрынин"
    INDEX 00 18:27:45
    INDEX 01 18:31:00
  TRACK 06 AUDIO
    TITLE "Качается вагон"
    PERFORMER "Вячеслав Добрынин"
    INDEX 00 21:42:27
    INDEX 01 21:45:65
  TRACK 07 AUDIO
    TITLE "Ах, какая женщина"
    PERFORMER "Вячеслав Добрынин"
    INDEX 00 26:00:35
    INDEX 01 26:04:15
  TRACK 08 AUDIO
    TITLE "Капитан запаса"
    PERFORMER "Вячеслав Добрынин"
    INDEX 00 31:20:30
    INDEX 01 31:23:70
  TRACK 09 AUDIO
    TITLE "Песня о жизни"
    PERFORMER "Вячеслав Добрынин"
    INDEX 00 34:28:20
    INDEX 01 34:31:70
  TRACK 10 AUDIO
    TITLE "Хобби"
    PERFORMER "Вячеслав Добрынин"
    INDEX 00 38:05:60
    INDEX 01 38:08:35
  TRACK 11 AUDIO
    TITLE "Твой взгляд"
    PERFORMER "Вячеслав Добрынин"
    INDEX 00 41:40:65
    INDEX 01 41:44:40
  TRACK 12 AUDIO
    TITLE "Первая ошибка"
    PERFORMER "Вячеслав Добрынин"
    INDEX 00 45:44:32
    INDEX 01 45:48:15
  TRACK 13 AUDIO
    TITLE "Одинокая"
    PERFORMER "Вячеслав Добрынин"
    INDEX 00 50:17:05
    INDEX 01 50:20:45
  TRACK 14 AUDIO
    TITLE "Сорок лет"
    PERFORMER "Вячеслав Добрынин"
    INDEX 00 54:20:00
    INDEX 01 54:23:50

Отчёт ЕАС&#58;

Exact Audio Copy V0.99 prebeta 5 from 4. May 2009
EAC extraction logfile from 1. December 2014, 21:41
Вячеслав Добрынин / Никто тебя не любит так, как я
Used drive  : SONY    CD-RW  CRX230ED   Adapter: 1  ID: 1
Read mode               : Secure
Utilize accurate stream : Yes
Defeat audio cache      : Yes
Make use of C2 pointers : No
Read offset correction                      : 6
Overread into Lead-In and Lead-Out          : No
Fill up missing offset samples with silence : Yes
Delete leading and trailing silent blocks   : No
Null samples used in CRC calculations       : Yes
Used interface                              : Native Win32 interface for Win NT & 2000
Used output format : Internal WAV Routines
Sample format      : 44.100 Hz; 16 Bit; Stereo
TOC of the extracted CD
     Track |   Start  |  Length  | Start sector | End sector
    ---------------------------------------------------------
        1  |  0:00.00 |  5:04.30 |         0    |    22829
        2  |  5:04.30 |  3:37.35 |     22830    |    39139
        3  |  8:41.65 |  4:29.10 |     39140    |    59324
        4  | 13:11.00 |  5:20.00 |     59325    |    83324
        5  | 18:31.00 |  3:14.65 |     83325    |    97939
        6  | 21:45.65 |  4:18.25 |     97940    |   117314
        7  | 26:04.15 |  5:19.55 |    117315    |   141294
        8  | 31:23.70 |  3:08.00 |    141295    |   155394
        9  | 34:31.70 |  3:36.40 |    155395    |   171634
       10  | 38:08.35 |  3:36.05 |    171635    |   187839
       11  | 41:44.40 |  4:03.50 |    187840    |   206114
       12  | 45:48.15 |  4:32.30 |    206115    |   226544
       13  | 50:20.45 |  4:03.05 |    226545    |   244774
       14  | 54:23.50 |  3:49.20 |    244775    |   261969
Range status and errors
Selected range
     Filename D:\Вячеслав Добрынин -Никто тебя не любит так, как я [CD] - 1994\Вячеслав 01. Добрынин - Никто тебя не любит так, как я (1994).wav
     Peak level 98.4 %
     Range quality 100.0 %
     Test CRC A15EE532
     Copy CRC A15EE532
     Copy OK
No errors occurred
End of status report

Отчёт auCDtect Task manager&#58;

-----------------------
DON'T MODIFY THIS FILE
-----------------------
PERFORMER: auCDtect Task Manager, ver. 1.6.0 RC1 build 1.6.0.1
Copyright (c) 2008-2010 y-soft. All rights reserved
http://y-soft.org
ANALYZER: auCDtect: CD records authenticity detector, version 0.8.2
Copyright (c) 2004 Oleg Berngardt. All rights reserved.
Copyright (c) 2004 Alexander Djourik. All rights reserved.
FILE: Вячеслав 01. Добрынин - Никто тебя не любит так, как я (1994).ape
  Size: 442407628 Hash: 0E56788BDFEBF6561336015F11E5A721 Accuracy: -m0
  Conclusion: CDDA 100%
  Signature: B1EB55A37F716E2013E2FBC113A1DA8A2F9984DB
-
Яндекс.Метрика
Рейтинг@Mail.ru