Богдан Титомир - Очень важный перец (2011) [FLAC|Lossless]<Pop>

 

Создавать темы 21-Дек-2014 21:59

-Богдан Титомир - Очень важный перец (2011)- Год: 2011
Жанр: Pop
Продолжительность: 00:55:27
Тип рипа: image+.cue
Производитель диска: Квадро-Диск
Кодек: FLAC
Битрейт: Lossless
Треклист:
01. Перцы
02. Вот и все
03. Пьяная
04. Секс-машина
05. Волейболз
06. Двигай жопой
07. Санкт-Петербург
08. Армия
09. Дни разлуки
10. На одной кончая
11. Будут наказаны
12. Моя девочка
13. Шляпа наоблиз
14. От и до

Отчёт ЕАС&#58;

Exact Audio Copy V0.99 prebeta 4 from 23. January 2008
EAC extraction logfile from 16. January 2012, 12:38
Б.ТИТОМИР / ОЧЕНЬ ВАЖНЫЙ ПЕРЕЦ
Used drive  : ASUS    DRW-2014L1   Adapter: 0  ID: 0
Read mode               : Secure
Utilize accurate stream : Yes
Defeat audio cache      : Yes
Make use of C2 pointers : No
Read offset correction                      : 6
Overread into Lead-In and Lead-Out          : No
Fill up missing offset samples with silence : Yes
Delete leading and trailing silent blocks   : No
Null samples used in CRC calculations       : Yes
Used interface                              : Installed external ASPI interface
Used output format              : User Defined Encoder
Selected bitrate                : 128 kBit/s
Quality                         : High
Add ID3 tag                     : No
Command line compressor         : C:\Program Files\Exact Audio Copy\Flac\flac.exe
Additional command line options : -T "DATE=%y" -T "GENRE=%m" -8 -V %s
TOC of the extracted CD
     Track |   Start  |  Length  | Start sector | End sector
    ---------------------------------------------------------
        1  |  0:00.00 |  3:37.67 |         0    |    16341
        2  |  3:37.67 |  4:08.53 |     16342    |    34994
        3  |  7:46.45 |  3:52.04 |     34995    |    52398
        4  | 11:38.49 |  3:42.22 |     52399    |    69070
        5  | 15:20.71 |  2:57.34 |     69071    |    82379
        6  | 18:18.30 |  3:08.26 |     82380    |    96505
        7  | 21:26.56 |  4:38.42 |     96506    |   117397
        8  | 26:05.23 |  4:38.07 |    117398    |   138254
        9  | 30:43.30 |  4:00.45 |    138255    |   156299
       10  | 34:44.00 |  4:00.22 |    156300    |   174321
       11  | 38:44.22 |  3:47.50 |    174322    |   191396
       12  | 42:31.72 |  3:41.64 |    191397    |   208035
       13  | 46:13.61 |  4:41.36 |    208036    |   229146
       14  | 50:55.22 |  4:32.02 |    229147    |   249548
Range status and errors
Selected range
     Filename C:\Users\ГРЕХОВСКИЙ\Desktop\Б.ТИТОМИР\ОЧЕНЬ ВАЖНЫЙ ПЕРЕЦ.wav
     Peak level 100.0 %
     Range quality 100.0 %
     Test CRC 547BCA66
     Copy CRC 547BCA66
     Copy OK
No errors occurred
AccurateRip summary
Track  1  not present in database
Track  2  not present in database
Track  3  not present in database
Track  4  not present in database
Track  5  not present in database
Track  6  not present in database
Track  7  not present in database
Track  8  not present in database
Track  9  not present in database
Track 10  not present in database
Track 11  not present in database
Track 12  not present in database
Track 13  not present in database
Track 14  not present in database
None of the tracks are present in the AccurateRip database
End of status report

Отчёт auCDtect Task manager&#58;

-----------------------
DON'T MODIFY THIS FILE
-----------------------
PERFORMER: auCDtect Task Manager, ver. 1.6.0 RC1 build 1.6.0.1
Copyright (c) 2008-2010 y-soft. All rights reserved
http://y-soft.org
ANALYZER: auCDtect: CD records authenticity detector, version 0.8.2
Copyright (c) 2004 Oleg Berngardt. All rights reserved.
Copyright (c) 2004 Alexander Djourik. All rights reserved.
FILE: ОЧЕНЬ ВАЖНЫЙ ПЕРЕЦ.flac
  Size: 375006128 Hash: EE086AAF044C60F8FE8406C00A7B6665 Accuracy: -m0
  Conclusion: CDDA 99%
  Signature: 9F24CC4ED5B3CAB49869BAC16A5D3F41C1A8F2DE
-
Яндекс.Метрика
Рейтинг@Mail.ru