Фристайл - Лучшие песни (2003) [FLAC|Lossless]<Pop>

 

Создавать темы 21-Дек-2014 21:59

-Фристайл - Лучшие песни (2003)- Год: 2003
Жанр: Pop
Продолжительность: 01:09:07
Издатель (лейбл): Монолит
Номер по каталогу: МТ 702909-216-1
Страна: Россия
Тип рипа: image+.cue
Кодек: FLAC
Битрейт: Lossless
Треклист:
01 Целуй меня горячей
02 Три сосны
03 Метелица
04 Грош тебе цена
05 Бог тебя накажет
06 Мама, Мама
07 Девочка - девчоночка
08 Ну, когда ж ты влюбишься?
09 Кони, кони
10 Больно мне, больно
11 Белая акация
12 Рыжая девчонка
13 До свадьбы заживёт
14 Завтра мы увидимся снова (Завтра)
15 Ещё вчера
16 Белая берёза
17 Догорает свеча

Отчёт ЕАС&#58;

Exact Audio Copy V1.0 beta 3 from 29. August 2011
Отчёт EAC об извлечении, выполненном 1. июля 2013, 21:50
Фристайл / Шедевры Эстрады. Лучшие песни
Дисковод: Optiarc DVD RW AD-5280S   Adapter: 0  ID: 0
Режим чтения                 : Достоверность
Использование точного потока : Да
Отключение кэша аудио        : Да
Использование указателей C2  : Нет
Коррекция смещения при чтении                     : 48
Способность читать области Lead-in и Lead-out     : Нет
Заполнение пропущенных сэмплов тишиной            : Да
Удаление блоков с тишиной в начале и конце        : Нет
При вычислениях CRC использовались нулевые сэмплы : Да
Интерфейс                                         : Встроенный Win32-интерфейс для Win NT/2000
Выходной формат          : Пользовательский кодировщик
Выбранный битрейт        : 128 kBit/s
Качество                 : Высокий
Добавление ID3-тега      : Нет
Утилита сжатия           : C:\Program Files (x86)\Exact Audio Copy\FLAC\FLAC.EXE
Дополнительные параметры : -V -8 -T "Date=%year%" -T "Genre=%genre%" %source%
TOC извлечённого CD
     Трек |   Старт  | Длительность | Начальный сектор | Конечный сектор
    ---------------------------------------------------------------------
       1  |  0:00.00 |    4:02.22   |           0      |      18171
       2  |  4:02.22 |    3:48.45   |       18172      |      35316
       3  |  7:50.67 |    3:52.04   |       35317      |      52720
       4  | 11:42.71 |    3:25.44   |       52721      |      68139
       5  | 15:08.40 |    4:06.03   |       68140      |      86592
       6  | 19:14.43 |    3:38.05   |       86593      |     102947
       7  | 22:52.48 |    3:31.36   |      102948      |     118808
       8  | 26:24.09 |    3:43.59   |      118809      |     135592
       9  | 30:07.68 |    3:49.62   |      135593      |     152829
      10  | 33:57.55 |    4:31.01   |      152830      |     173155
      11  | 38:28.56 |    4:17.34   |      173156      |     192464
      12  | 42:46.15 |    4:18.38   |      192465      |     211852
      13  | 47:04.53 |    4:16.37   |      211853      |     231089
      14  | 51:21.15 |    4:19.32   |      231090      |     250546
      15  | 55:40.47 |    4:08.29   |      250547      |     269175
      16  | 59:49.01 |    4:52.21   |      269176      |     291096
      17  | 64:41.22 |    4:26.17   |      291097      |     311063
Характеристики диапазона извлечения и сообщения об ошибках
Выбранный диапазон
     Имя файла D:\FLAC\2003 Фристайл - Шедевры Эстрады. Лучшие песни\Фристайл - Шедевры Эстрады. Лучшие песни.wav
     Пиковый уровень 98.9 %
     Скорость извлечения 4.2 X
     Качество диапазона 100.0 %
     CRC теста ADD3A41D
     CRC копии ADD3A41D
     Копирование... OK
Ошибок не произошло
AccurateRip: сводка
Трек  1  отсутствует в базе данных
Трек  2  отсутствует в базе данных
Трек  3  отсутствует в базе данных
Трек  4  отсутствует в базе данных
Трек  5  отсутствует в базе данных
Трек  6  отсутствует в базе данных
Трек  7  отсутствует в базе данных
Трек  8  отсутствует в базе данных
Трек  9  отсутствует в базе данных
Трек 10  отсутствует в базе данных
Трек 11  отсутствует в базе данных
Трек 12  отсутствует в базе данных
Трек 13  отсутствует в базе данных
Трек 14  отсутствует в базе данных
Трек 15  отсутствует в базе данных
Трек 16  отсутствует в базе данных
Трек 17  отсутствует в базе данных
Ни одного трека нет в базе AccurateRip
Конец отчёта
==== Контрольная сумма отчёта BB56CBA4081E31D9F38B5DD58DCC4F69335C201318FD1BFB7ED9EA3BE76C1283 ====

Отчёт auCDtect Task manager&#58;

-----------------------
DON'T MODIFY THIS FILE
-----------------------
PERFORMER: auCDtect Task Manager, ver. 1.6.0 RC1 build 1.6.0.1
Copyright (c) 2008-2010 y-soft. All rights reserved
http://y-soft.org
ANALYZER: auCDtect: CD records authenticity detector, version 0.8.2
Copyright (c) 2004 Oleg Berngardt. All rights reserved.
Copyright (c) 2004 Alexander Djourik. All rights reserved.
FILE: Фристайл - Шедевры Эстрады. Лучшие песни.flac
  Size: 510954510 Hash: 10615AA06A4C2FDE3BA0763FC9BCC19D Accuracy: -m0
  Conclusion: CDDA 100%
  Signature: 20A30624F64BAC23D2FE662E1692BEB164D508BA
-
Яндекс.Метрика
Рейтинг@Mail.ru