Комиссар - Новое И Лучшее 2000 (2000) [FLAC|Lossless]<Pop>

 

Создавать темы 21-Дек-2014 21:59

-Комиссар - Новое И Лучшее 2000 (2000)- Год: 2000
Жанр: Pop
Продолжительность: 00:53:20
Тип рипа: image+.cue
Кодек: FLAC
Битрейт: Lossless
Треклист:
1. Лёха (3:07)
2. Твой Поцелуй 2000 (Millenium Mix) (3:38)
3. Адреналин (4:07)
4. Туман-Туманище (4:08)
5. Сказочные Сны (House Version) (4:24)
6. Королева Снежная (4:34)
7. Нам С Тобой Любовь Пророчили (3:14)
8. Дисбат (4:24)
9. Ты Вернешься (4:12)
10. Я Тебе Объявляю Войну (4:18)
11. Нежный Мотив (New Edit) (4:01)
12. Не Обижайся (5:05)
13. Дрянь 2000 (Radio Version) (4:08)

Отчёт ЕАС&#58;

Exact Audio Copy V0.99 prebeta 5 from 4. May 2009
Отчёт EAC об извлечении, выполненном 16. апреля 2010, 1:35
Комиссар / Новое И Лучшее 2000
Дисковод: ASUS    DRW-2014L1T   Adapter: 2  ID: 0
Режим чтения                 : Достоверность
Использование точного потока : Да
Отключение кэша аудио        : Да
Использование указателей C2  : Нет
Коррекция смещения при чтении                     : 6
Способность читать области Lead-in и Lead-out     : Нет
Заполнение пропущенных сэмплов тишиной            : Да
Удаление блоков с тишиной в начале и конце        : Нет
При вычислениях CRC использовались нулевые сэмплы : Да
Интерфейс                                         : Установленный внешний ASPI-интерфейс
Выходной формат : Внутренние WAV-операции
Формат сэмплов  : 44.100 Гц; 16 бит; стерео
TOC извлечённого CD
     Трек |   Старт  | Длительность | Начальный сектор | Конечный сектор
    ---------------------------------------------------------------------
       1  |  0:00.00 |    3:07.54   |           0      |      14078
       2  |  3:07.54 |    3:38.63   |       14079      |      30491
       3  |  6:46.42 |    4:07.24   |       30492      |      49040
       4  | 10:53.66 |    4:08.17   |       49041      |      67657
       5  | 15:02.08 |    4:24.39   |       67658      |      87496
       6  | 19:26.47 |    4:34.36   |       87497      |     108082
       7  | 24:01.08 |    3:14.16   |      108083      |     122648
       8  | 27:15.24 |    4:24.49   |      122649      |     142497
       9  | 31:39.73 |    4:12.21   |      142498      |     161418
      10  | 35:52.19 |    4:18.26   |      161419      |     180794
      11  | 40:10.45 |    4:01.32   |      180795      |     198901
      12  | 44:12.02 |    5:05.36   |      198902      |     221812
      13  | 49:17.38 |    4:08.20   |      221813      |     240432
Характеристики диапазона извлечения и сообщения об ошибках
Выбранный диапазон
     Имя файла E:\dvd\Комиссар - Новое И Лучшее 2000.wav
     Пиковый уровень 100.0 %
     Качество диапазона 99.9 %
     CRC теста 2768D284
     CRC копии 2768D284
     Копирование... OK
Ошибок не произошло
AccurateRip: сводка
Трек  1  нет в базе данных
Трек  2  нет в базе данных
Трек  3  нет в базе данных
Трек  4  нет в базе данных
Трек  5  нет в базе данных
Трек  6  нет в базе данных
Трек  7  нет в базе данных
Трек  8  нет в базе данных
Трек  9  нет в базе данных
Трек 10  нет в базе данных
Трек 11  нет в базе данных
Трек 12  нет в базе данных
Трек 13  нет в базе данных
Ни одного трека нет в базе AccurateRip
Конец отчёта

Отчёт auCDtect Task manager&#58;

-----------------------
DON'T MODIFY THIS FILE
-----------------------
PERFORMER: auCDtect Task Manager, ver. 1.6.0 RC1 build 1.6.0.1
Copyright (c) 2008-2010 y-soft. All rights reserved
http://y-soft.org
ANALYZER: auCDtect: CD records authenticity detector, version 0.8.2
Copyright (c) 2004 Oleg Berngardt. All rights reserved.
Copyright (c) 2004 Alexander Djourik. All rights reserved.
FILE: Комиссар - Новое И Лучшее 2000.flac
  Size: 404293209 Hash: 41E035647DC13FA6EA6AECD84632F9EE Accuracy: -m0
  Conclusion: CDDA 100%
  Signature: BE505BBE813B527F8D19C9F3FB36E6A90EF592BE
-
Яндекс.Метрика
Рейтинг@Mail.ru