[ Сегодня на трекере фрилич! Идет свободное скачивание без начисления Download ]

Игорь Саруханов - Grand Collection (2006) [FLAC|Lossless]<Pop>

 

Создавать темы 21-Дек-2014 21:59

-Игорь Саруханов - Grand Collection (2006)- Год: 2006
Жанр: Pop
Продолжительность: 01:19:10
Издатель (лейбл): Квадро-Диск
Номер по каталогу: GCR 058N
Тип рипа: image+.cue
Кодек: FLAC
Битрейт: Lossless
Треклист:
1. Маскарад
2. Слово в слово
3. Позади крутой поворот
4. Сухуми
5. Ящики почтовые
6. Парень с гитарой
7. Желаю тебе
8. Я хочу побыть один
9. Дорогие мои старики
10. Зелёные глаза
11. Поминальная
12. Зачем вернулась ты
13. Скрипка-лиса
14. Это не любовь
15. Лодочка, плыви
16. Ты, ты, я, я
17. Платье

Отчёт ЕАС&#58;

Exact Audio Copy V1.0 beta 3 from 29. August 2011
EAC extraction logfile from 3. August 2014, 5:03
Игорь Саруханов / Grand Collection
Used drive  : SlimtypeDVD A DS8A4S   Adapter: 1  ID: 0
Read mode               : Secure
Utilize accurate stream : Yes
Defeat audio cache      : Yes
Make use of C2 pointers : No
Read offset correction                      : 6
Overread into Lead-In and Lead-Out          : No
Fill up missing offset samples with silence : Yes
Delete leading and trailing silent blocks   : No
Null samples used in CRC calculations       : Yes
Used interface                              : Native Win32 interface for Win NT & 2000
Used output format              : User Defined Encoder
Selected bitrate                : 1024 kBit/s
Quality                         : High
Add ID3 tag                     : No
Command line compressor         : D:\Program Files\Exact Audio Copy\Flac\flac.exe
Additional command line options : -V -8 -T "Date=%year%" -T "Genre=%genre%" %source%
TOC of the extracted CD
     Track |   Start  |  Length  | Start sector | End sector
    ---------------------------------------------------------
        1  |  0:00.00 |  5:03.14 |         0    |    22738
        2  |  5:03.14 |  5:35.56 |     22739    |    47919
        3  | 10:38.70 |  5:06.38 |     47920    |    70907
        4  | 15:45.33 |  4:18.73 |     70908    |    90330
        5  | 20:04.31 |  3:37.51 |     90331    |   106656
        6  | 23:42.07 |  4:26.04 |    106657    |   126610
        7  | 28:08.11 |  4:34.01 |    126611    |   147161
        8  | 32:42.12 |  5:10.15 |    147162    |   170426
        9  | 37:52.27 |  3:50.61 |    170427    |   187737
       10  | 41:43.13 |  5:20.00 |    187738    |   211737
       11  | 47:03.13 |  5:30.01 |    211738    |   236488
       12  | 52:33.14 |  3:59.25 |    236489    |   254438
       13  | 56:32.39 |  6:16.46 |    254439    |   282684
       14  | 62:49.10 |  4:29.54 |    282685    |   302913
       15  | 67:18.64 |  4:32.00 |    302914    |   323313
       16  | 71:50.64 |  3:52.31 |    323314    |   340744
       17  | 75:43.20 |  3:25.53 |    340745    |   356172
Range status and errors
Selected range
     Filename G:\Саруханов Игорь\Игорь Саруханов - Grand Collection (2006)\Игорь Саруханов - Grand Collection.wav
     Peak level 97.2 %
     Extraction speed 2.1 X
     Range quality 100.0 %
     Test CRC D8BE025D
     Copy CRC D8BE025D
     Copy OK
No errors occurred
AccurateRip summary
Track  1  not present in database
Track  2  not present in database
Track  3  not present in database
Track  4  not present in database
Track  5  not present in database
Track  6  not present in database
Track  7  not present in database
Track  8  not present in database
Track  9  not present in database
Track 10  not present in database
Track 11  not present in database
Track 12  not present in database
Track 13  not present in database
Track 14  not present in database
Track 15  not present in database
Track 16  not present in database
Track 17  not present in database
None of the tracks are present in the AccurateRip database
End of status report
==== Log checksum 427E47B7D54B04D1FA406570A11736CFAEBB56320B2CA1C788D069719D745F69 ====

Отчёт auCDtect Task manager&#58;

-----------------------
DON'T MODIFY THIS FILE
-----------------------
PERFORMER: auCDtect Task Manager, ver. 1.6.0 RC1 build 1.6.0.1
Copyright (c) 2008-2010 y-soft. All rights reserved
http://y-soft.org
ANALYZER: auCDtect: CD records authenticity detector, version 0.8.2
Copyright (c) 2004 Oleg Berngardt. All rights reserved.
Copyright (c) 2004 Alexander Djourik. All rights reserved.
FILE: Игорь Саруханов - Grand Collection.flac
  Size: 554122176 Hash: FC5FCAA41F585A6701824AD44E8DD3FF Accuracy: -m0
  Conclusion: CDDA 100%
  Signature: 490A88CF31DBCBDA2A552FAD6E261F2D9BC523A8
-


Последний раз редактировалось: шарик-off (2014-12-22 11:36), всего редактировалось 1 раз

Создавать темы 22-Дек-2014 02:51 (спустя 4 часа)

Благодарю.
Яндекс.Метрика
Рейтинг@Mail.ru