[ Сегодня на трекере фрилич! Идет свободное скачивание без начисления Download ]

Стражи Галактики / Guardians of the Galaxy (Джеймс Ганн / James Gunn) [2014 г., фантастика, боевик, приключения, BDRip-AVC] [IMAX Edition] Dub + MVO + AVO (Сербин) + VO + original (Eng) + Sub (Rus, Eng)

 

Создавать темы 21-Дек-2014 04:16

-Стражи Галактики / Guardians of the Galaxy-IMAX Edition-- Производство: США, Великобритания
Год выпуска: 2014 г.
Жанр: фантастика, боевик, приключения
Продолжительность: 02:00:51
Мировая премьера: 21 июля 2014
Российская премьера: 31 июля 2014
Дата выхода DVD: 2 декабря 2014
Дата выхода Blu-Ray: 2 декабря 2014
Перевод 1: Профессиональный (полное дублирование) [Лицензия]
Перевод 2: Профессиональный (многоголосый, закадровый) [«Омикрон»]
Перевод 3: Авторский (одноголосый, закадровый) [Ю. Сербин]
Перевод 4: Любительский (одноголосый, закадровый) [А.Матвеев]
Оригинальный аудио поток: Английский
Режиссер: Джеймс Ганн / James Gunn-В ролях: Крис Прэтт, Зои Салдана, Дэйв Батиста, Брэдли Купер, Вин Дизель, Ли Пейс, Майкл Рукер, Карен Гиллан-Описание: Отважному путешественнику Питеру Квиллу попадает в руки таинственный артефакт, принадлежащий могущественному и безжалостному злодею Ронану, строящему коварные планы по захвату Вселенной. Питер оказывается в центре межгалактической охоты, где жертва — он сам.
Единственный способ спасти свою жизнь — объединиться с четверкой нелюдимых изгоев: воинственным енотом по кличке Ракета, человекоподобным деревом Грутом, смертельно опасной Гаморой и одержимым жаждой мести Драксом, также известным как Разрушитель. Когда Квилл понимает, какой силой обладает украденный артефакт и какую опасность он представляет для вселенной, одиночка пойдет на все, чтобы сплотить случайных союзников для решающей битвы за судьбу галактики.-
Качество видео: BDRip-AVC
Контейнер: MKV
Видео кодек: H.264
Аудио кодек: AC3
Видео: 960x540 (16:9), 23.976 fps, 1530 kbps avg, 0.123 bit/pixel
Аудио #1: 48 kHz, AC3 Dolby Digital, 3/2 (L,C,R,l,r) + LFE ch, 384 kbps (Лицензионный дубляж)
Аудио #2: 48 kHz, AC3 Dolby Digital, 3/2 (L,C,R,l,r) + LFE ch, 384 kbps («Омикрон»)
Аудио #3: 48 kHz, AC3 Dolby Digital, 3/2 (L,C,R,l,r) + LFE ch, 384 kbps (Ю. Сербин)
Аудио #4: 48 kHz, AC3 Dolby Digital, 3/2 (L,C,R,l,r) + LFE ch, 384 kbps (А.Матвеев)
Аудио #5: 48 kHz, AC3 Dolby Digital, 3/2 (L,C,R,l,r) + LFE ch, 384 kbps (English)
Cубтитры: русские (полные, форсированные), English (полные (2 вида), SDH, SDH цветные, комментарии режиссёра)
Формат субтитров: softsub (SRT)

Доп. информация

Сохранены и подписаны оригинальные главы как на Blu-ray.
Перевод и озвучивание осуществлено студией «Омикрон» в рамках сервиса "Озвучивание". Спонсоры: cps3113, banan58, xRym, yuriker, kinomexanik, grizlii, ultrajeka, MustangerStr, shtift, LexKox, Razum, rassvet, Redrum, melanin, PoHHaN, Confidence, Latander, iiiMia, Pertcev, kirill_sky, king3, lemonarium, wildhealer, Armless, Evgecha_72, Joke83, anton48, WitW, DronNew, Carpenter, ZeRoNe, Andresoff, di9383, semerka, dilnix, дамбо, Ден03ис, lex077.
За перевод Юрия Сербина говорим спасибо: urassiks, Skoped, ultrajeka, Nadoelo, MyxAmoP, kondratzx, ZeDOK, HPotter, luka69, ANISKIN50, masta, foxlight, Некрасов, dsk71, Slimka, Loki1982, dark1982, dvd100, carnivale, Ramis, vik19662007, blackmore, Palmer Eldritch, Andrey_Tula, rammzez, Alexbeer, GKillah, ilbilb, Iceman, Gross1978, Эдуард, Chistobaev, Roman Lee, semargl, пуля, Letyoha3, Gangster, DB73, aladdin911, denis_mgn_1987, maximus10-99, ARTYq, dir.

Media Info

General
Unique ID : 171380457356839545808911979811251644252 (0x80EEACEBA4B092E0863AA747413B675C)
Format : Matroska
Format version : Version 4 / Version 2
File size : 2.91 GiB
Duration : 2h 0mn
Overall bit rate : 3 455 Kbps
Movie name : Стражи Галактики / Guardians of the Galaxy
Encoded date : UTC 2014-12-20 08:41:56
Writing application : mkvmerge v6.2.0 ('Promised Land') built on Apr 28 2013 12:22:01
Writing library : libebml v1.3.0 + libmatroska v1.4.0
Video
ID : 1
Format : AVC
Format/Info : Advanced Video Codec
Format profile : [email protected]
Format settings, CABAC : Yes
Format settings, ReFrames : 12 frames
Codec ID : V_MPEG4/ISO/AVC
Duration : 2h 0mn
Bit rate : 1 530 Kbps
Width : 960 pixels
Height : 540 pixels
Display aspect ratio : 16:9
Frame rate mode : Constant
Frame rate : 23.976 fps
Color space : YUV
Chroma subsampling : 4:2:0
Bit depth : 8 bits
Scan type : Progressive
Bits/(Pixel*Frame) : 0.123
Stream size : 1.24 GiB (42%)
Title : Guardians of the Galaxy
Writing library : x264 core 142 r2491 24e4fed
Encoding settings : cabac=1 / ref=12 / deblock=1:-3:-3 / analyse=0x3:0x113 / me=umh / subme=11 / psy=1 / psy_rd=1.05:0.08 / mixed_ref=1 / me_range=56 / chroma_me=1 / trellis=2 / 8x8dct=1 / cqm=0 / deadzone=21,11 / fast_pskip=0 / chroma_qp_offset=-6 / threads=12 / lookahead_threads=3 / sliced_threads=0 / nr=0 / decimate=1 / interlaced=0 / bluray_compat=0 / constrained_intra=0 / bframes=14 / b_pyramid=2 / b_adapt=2 / b_bias=0 / direct=1 / weightb=1 / open_gop=0 / weightp=2 / keyint=240 / keyint_min=22 / scenecut=40 / intra_refresh=0 / rc_lookahead=160 / rc=2pass / mbtree=1 / bitrate=1530 / ratetol=1.0 / qcomp=0.72 / qpmin=0 / qpmax=69 / qpstep=4 / cplxblur=20.0 / qblur=0.5 / vbv_maxrate=50000 / vbv_bufsize=62500 / nal_hrd=none / filler=0 / ip_ratio=1.35 / aq=1:0.90
Language : English
Default : Yes
Forced : No
Audio #1
ID : 2
Format : AC-3
Format/Info : Audio Coding 3
Mode extension : CM (complete main)
Format settings, Endianness : Big
Codec ID : A_AC3
Duration : 2h 0mn
Bit rate mode : Constant
Bit rate : 384 Kbps
Channel(s) : 6 channels
Channel positions : Front: L C R, Side: L R, LFE
Sampling rate : 48.0 KHz
Bit depth : 16 bits
Compression mode : Lossy
Stream size : 332 MiB (11%)
Title : Dub
Language : Russian
Default : Yes
Forced : No
Audio #2
ID : 3
Format : AC-3
Format/Info : Audio Coding 3
Mode extension : CM (complete main)
Format settings, Endianness : Big
Codec ID : A_AC3
Duration : 2h 0mn
Bit rate mode : Constant
Bit rate : 384 Kbps
Channel(s) : 6 channels
Channel positions : Front: L C R, Side: L R, LFE
Sampling rate : 48.0 KHz
Bit depth : 16 bits
Compression mode : Lossy
Stream size : 332 MiB (11%)
Title : MVO Omikron
Language : Russian
Default : No
Forced : No
Audio #3
ID : 4
Format : AC-3
Format/Info : Audio Coding 3
Mode extension : CM (complete main)
Format settings, Endianness : Big
Codec ID : A_AC3
Duration : 2h 0mn
Bit rate mode : Constant
Bit rate : 384 Kbps
Channel(s) : 6 channels
Channel positions : Front: L C R, Side: L R, LFE
Sampling rate : 48.0 KHz
Bit depth : 16 bits
Compression mode : Lossy
Stream size : 332 MiB (11%)
Title : AVO Serbin
Language : Russian
Default : No
Forced : No
Audio #4
ID : 5
Format : AC-3
Format/Info : Audio Coding 3
Mode extension : CM (complete main)
Format settings, Endianness : Big
Codec ID : A_AC3
Duration : 2h 0mn
Bit rate mode : Constant
Bit rate : 384 Kbps
Channel(s) : 6 channels
Channel positions : Front: L C R, Side: L R, LFE
Sampling rate : 48.0 KHz
Bit depth : 16 bits
Compression mode : Lossy
Stream size : 332 MiB (11%)
Title : VO Matveev
Language : Russian
Default : No
Forced : No
Audio #5
ID : 6
Format : AC-3
Format/Info : Audio Coding 3
Mode extension : CM (complete main)
Format settings, Endianness : Big
Codec ID : A_AC3
Duration : 2h 0mn
Bit rate mode : Constant
Bit rate : 384 Kbps
Channel(s) : 6 channels
Channel positions : Front: L C R, Side: L R, LFE
Sampling rate : 48.0 KHz
Bit depth : 16 bits
Compression mode : Lossy
Stream size : 332 MiB (11%)
Title : Eng
Language : English
Default : No
Forced : No
Text #1
ID : 7
Format : UTF-8
Codec ID : S_TEXT/UTF8
Codec ID/Info : UTF-8 Plain Text
Title : Rus Forced
Language : Russian
Default : Yes
Forced : Yes
Text #2
ID : 8
Format : UTF-8
Codec ID : S_TEXT/UTF8
Codec ID/Info : UTF-8 Plain Text
Title : Rus
Language : Russian
Default : No
Forced : No
Text #3
ID : 9
Format : UTF-8
Codec ID : S_TEXT/UTF8
Codec ID/Info : UTF-8 Plain Text
Title : Eng VarI
Language : English
Default : No
Forced : No
Text #4
ID : 10
Format : UTF-8
Codec ID : S_TEXT/UTF8
Codec ID/Info : UTF-8 Plain Text
Title : Eng VarII
Language : English
Default : No
Forced : No
Text #5
ID : 11
Format : UTF-8
Codec ID : S_TEXT/UTF8
Codec ID/Info : UTF-8 Plain Text
Title : Eng SDH
Language : English
Default : No
Forced : No
Text #6
ID : 12
Format : UTF-8
Codec ID : S_TEXT/UTF8
Codec ID/Info : UTF-8 Plain Text
Title : Eng SDH Colored
Language : English
Default : No
Forced : No
Text #7
ID : 13
Format : UTF-8
Codec ID : S_TEXT/UTF8
Codec ID/Info : UTF-8 Plain Text
Title : Eng Comments
Language : English
Default : No
Forced : No
Menu
00:00:00.000 : :Prologue
00:04:05.703 : :Morag
00:11:21.806 : :Ronan The Accuser
00:15:21.712 : :A Man Of Honor
00:20:54.419 : :The Kyln
00:27:11.212 : :Crimes Against The Galaxy
00:33:58.828 : :Escaping The Kyln
00:44:28.290 : :Knowhere
00:50:53.008 : :I Do Not Dance
00:55:17.564 : :The Collector
00:59:45.206 : :Facing Off With Ronan
01:06:06.921 : :Something Incredibly Heroic
01:14:46.023 : :12 Percent Of A Plan
01:22:20.644 : :The Fleet Approaches
01:26:29.726 : :Inside The Dark Aster
01:30:23.876 : :Destroying Xandar
01:35:58.377 : :Protecting The Guardians
01:40:46.749 : :Guardians Of The Galaxy
01:47:35.365 : :Guardians Pardoned
01:53:16.623 : :End Credits
02:00:10.828 : :End Tag

Скриншоты

Яндекс.Метрика
Рейтинг@Mail.ru