Убойное Рождество Гарольда и Кумара / A Very Harold & Kumar 3D Christmas (Тодд Штраус-Шульсон / Todd Strauss-Schulson) [2011 г., комедия, BDRip, 720p] AVO (Андрей Дольский) + MVO + DVO (Кубик в кубе) + original (Eng)

 

Создавать темы 21-Дек-2014 04:14

Убойное Рождество Гарольда и Кумара / A Very Harold & Kumar 3D Christmas
Год выпуска: 2011
Производство: США
Жанр: комедия
Продолжительность: 01:29:40
Перевод: Авторский (одноголосый, закадровый) Андрей Дольский
Перевод 2: Профессиональный (многоголосый, закадровый) MVO
Перевод 3: Профессиональный (двухголосый, закадровый) Кубик в кубе (ненормативная лексика)
Оригинальный аудиопоток: английский
Субтитры: отсутствуют
Режиссер: Тодд Штраус-Шульсон / Todd Strauss-Schulson
В ролях: Джон Чо, Кэл Пенн, Нил Патрик Харрис, Пэттон Освальт, Изабелла Жельняк, Остин Бикел, Инга Р. Уилсон, Бобби Ли, Томас Леннон, Амир Блюменфилд, Дэнни Трехо
Описание: Прошло шесть лет после приключения в проливе Гуантанамо. На этот раз закадычные друзья Гарольд Ли и Кумар Пател сорвали праздник, случайно спалив дотла призовую рождественскую ель тестя Гарольда.
Сэмпл , , КиноПоиск
Качество видео: BDRip
Контейнер: MKV
Стандарт разрешения: 720p
Видео кодек: H.264
Аудио кодек: AC3
Видео: 1280x532, 6215 Kbps, 23.976 кадр/с, 0.381 bt/px
Аудио : AC-3, 2 ch, 448 Kbps, 48 kHz Rus Дольский
Аудио : AC-3, 6 ch, 448 Kbps, 48 kHz Rus MVO
Аудио : AC-3, 6 ch, 448 Kbps, 48 kHz Rus DVO Кубик в кубе(не нормативная лексика)
Аудио : AC-3, 6 ch, 448 Kbps, 48 kHz Eng Original

Media Info

J:\A VERY HAROLD&KUMAR 3D CHRISTMAS(УБОЙНОЕ РОЖДЕСТВО ГАРОЛЬДА И КУМАРА).mkv
General
Unique ID : 191469290913686776563251235055103836034 (0x900BA4E26F6548A59EE49572E282FF82)
Complete name : J:\A VERY HAROLD&KUMAR 3D CHRISTMAS(УБОЙНОЕ РОЖДЕСТВО ГАРОЛЬДА И КУМАРА).mkv
Format : Matroska
Format version : Version 1
File size : 5.12 GiB
Duration : 1h 29mn
Overall bit rate : 8 169 Kbps
Movie name : A Very Harold & Kumar 3D Christmas (3D) 2011 (Ash61)
Encoded date : UTC 2014-12-12 18:01:20
Writing application : mkvmerge v2.5.3 ('Boogie') built on Mar 7 2009 15:00:41
Writing library : libebml v0.7.7 + libmatroska v0.8.1
Video #1
ID : 1
Format : AVC
Format/Info : Advanced Video Codec
Format profile : [email protected]
Format settings, CABAC : Yes
Format settings, ReFrames : 12 frames
Codec ID : V_MPEG4/ISO/AVC
Duration : 1h 29mn
Bit rate : 6 215 Kbps
Width : 1 280 pixels
Height : 532 pixels
Display aspect ratio : 2.40:1
Frame rate mode : Constant
Frame rate : 23.976 fps
Color space : YUV
Chroma subsampling : 4:2:0
Bit depth : 8 bits
Scan type : Progressive
Bits/(Pixel*Frame) : 0.381
Stream size : 3.89 GiB (76%)
Writing library : x264 core 130 r2273 b3065e6
Encoding settings : cabac=1 / ref=12 / deblock=1:-3:-3 / analyse=0x3:0x133 / me=umh / subme=11 / psy=1 / psy_rd=1.00:0.15 / mixed_ref=1 / me_range=32 / chroma_me=1 / trellis=2 / 8x8dct=1 / cqm=0 / deadzone=21,11 / fast_pskip=0 / chroma_qp_offset=-3 / threads=6 / lookahead_threads=1 / sliced_threads=0 / nr=0 / decimate=1 / interlaced=0 / bluray_compat=0 / constrained_intra=0 / bframes=8 / b_pyramid=2 / b_adapt=2 / b_bias=0 / direct=1 / weightb=1 / open_gop=0 / weightp=2 / keyint=250 / keyint_min=23 / scenecut=40 / intra_refresh=0 / rc=crf / mbtree=0 / crf=18.0 / qcomp=0.60 / qpmin=0 / qpmax=51 / qpstep=4 / ip_ratio=1.40 / pb_ratio=1.30 / aq=1:1.00
Language : English
Default : Yes
Forced : No
Audio #2
ID : 2
Format : AC-3
Format/Info : Audio Coding 3
Mode extension : CM (complete main)
Format settings, Endianness : Big
Codec ID : A_AC3
Duration : 1h 29mn
Bit rate mode : Constant
Bit rate : 448 Kbps
Channel(s) : 2 channels
Channel positions : Front: L R
Sampling rate : 48.0 KHz
Bit depth : 16 bits
Compression mode : Lossy
Stream size : 287 MiB (5%)
Title : AVO Дольский
Language : Russian
Default : Yes
Forced : No
Audio #3
ID : 3
Format : AC-3
Format/Info : Audio Coding 3
Mode extension : CM (complete main)
Format settings, Endianness : Big
Codec ID : A_AC3
Duration : 1h 29mn
Bit rate mode : Constant
Bit rate : 448 Kbps
Channel(s) : 6 channels
Channel positions : Front: L C R, Side: L R, LFE
Sampling rate : 48.0 KHz
Bit depth : 16 bits
Compression mode : Lossy
Stream size : 287 MiB (5%)
Title : MVO
Language : Russian
Default : No
Forced : No
Audio #4
ID : 4
Format : AC-3
Format/Info : Audio Coding 3
Mode extension : CM (complete main)
Format settings, Endianness : Big
Codec ID : A_AC3
Duration : 1h 29mn
Bit rate mode : Constant
Bit rate : 448 Kbps
Channel(s) : 6 channels
Channel positions : Front: L C R, Side: L R, LFE
Sampling rate : 48.0 KHz
Bit depth : 16 bits
Compression mode : Lossy
Stream size : 287 MiB (5%)
Title : DVO - Кубик в кубе
Language : Russian
Default : No
Forced : No
Audio #5
ID : 5
Format : AC-3
Format/Info : Audio Coding 3
Mode extension : CM (complete main)
Format settings, Endianness : Big
Codec ID : A_AC3
Duration : 1h 29mn
Bit rate mode : Constant
Bit rate : 448 Kbps
Channel(s) : 6 channels
Channel positions : Front: L C R, Side: L R, LFE
Sampling rate : 48.0 KHz
Bit depth : 16 bits
Compression mode : Lossy
Stream size : 287 MiB (5%)
Language : English
Default : No
Forced : No

log x.264

x264 [info]: frame I:1777  Avg QP:18.03  size:139876
x264 [info]: frame P:28156 Avg QP:19.24 size: 58746
x264 [info]: frame B:99043 Avg QP:21.07 size: 24065
x264 [info]: consecutive B-frames: 2.9% 2.5% 5.5% 29.0% 16.5% 26.9% 6.4% 9.0% 1.4%
x264 [info]: mb I I16..4: 19.4% 56.3% 24.3%
x264 [info]: mb P I16..4: 2.6% 12.0% 3.2% P16..4: 25.8% 33.8% 16.9% 3.5% 0.3% skip: 2.0%
x264 [info]: mb B I16..4: 0.1% 2.2% 0.6% B16..8: 32.0% 21.9% 6.1% direct:10.9% skip:26.3% L0:39.5% L1:41.5% BI:19.0%
x264 [info]: 8x8 transform intra:68.4% inter:49.2%
x264 [info]: coded y,uvDC,uvAC intra: 91.4% 96.4% 89.3% inter: 40.9% 43.2% 23.6%
x264 [info]: i16 v,h,dc,p: 9% 3% 39% 49%
x264 [info]: i8 v,h,dc,ddl,ddr,vr,hd,vl,hu: 12% 8% 15% 9% 12% 12% 11% 11% 12%
x264 [info]: i4 v,h,dc,ddl,ddr,vr,hd,vl,hu: 40% 5% 7% 7% 9% 9% 8% 8% 8%
x264 [info]: i8c dc,h,v,p: 53% 14% 15% 18%
x264 [info]: Weighted P-Frames: Y:4.8% UV:2.9%
x264 [info]: ref P L0: 41.8% 10.5% 19.4% 6.1% 6.0% 3.7% 4.0% 1.9% 2.1% 1.5% 1.6% 1.3% 0.2% 0.0%
x264 [info]: ref B L0: 77.0% 10.6% 4.2% 2.3% 1.6% 1.4% 1.1% 0.7% 0.5% 0.4% 0.2%
x264 [info]: ref B L1: 94.2% 5.8%
x264 [info]: kb/s:6374.09
x264 [total]: encoded 128976 frames, 3.86 fps, 6374.09 kb/s

Скриншоты

Яндекс.Метрика
Рейтинг@Mail.ru