BBC: Планета муравьёв: Взгляд изнутри / BBC: Planet Ant: Life Inside the Colony (2012)[ документальный, HDTVRip от R.G.RealMT | P2]

 

Создавать темы 18-Ноя-2013 10:35

Название: Планета муравьёв: Взгляд изнутри
Оригинальное название: Planet Ant: Life Inside the Colony
Год выпуска: 2012
Жанр: документальный
Режиссер: Эндрю Стефенсон
Описание: Этот фильм - взгляд на тайну подземного мира колонии муравьёв.
Соорудив специально спроектированный массивный и полномасштабный муравейник, энтомолог доктор Джордж МакГейвин и эксперт по муравьям-листорезам профессор Адам Харт в течение месяца наблюдают за многомиллионной колонией муравьёв-листорезов из Тринидада. Используя камеры с покадровой съёмкой, микроскопы, микрофоны и технологии радио-слежения, они исследуют, как эти крошечные насекомые могут достичь таких захватывающих высот коллективной организации.
Этот уникальный проект показывает, как работает одна из самых сложных и таинственных социальных систем в мире природы и удивительные способы, с помощью которых муравьи помогают нам решать глобальные проблемы.
Страна: Великобритания
Студия: BBC
Продолжительность: 01:28:47
Перевод: Профессиональный (двухголосый закадровый) - Видеофильм ТВ
Качество: HDTVRip
Формат:AVI
Видео кодек: XviD
Аудио кодек: MP3
Видео: 16:9, 2100 Кбит/сек, 720x400, 25,000 кадров/сек
Аудио: MP3, 2 канала, 192 Кбит/сек, 48,0 КГц

MediaInfo

Общее
Полное имя : D:BBC.Planet.Ant.Life.Inside.the.Colony.2012.HDTVRip.[R.G.RealMT].avi
Формат : AVI
Формат/Информация : Audio Video Interleave
Размер файла : 1,43 Гбайт
Продолжительность : 1 ч. 28 м.
Общий поток : 2301 Кбит/сек
Программа кодирования : VirtualDubMod 1.5.10.3 | www.virtualdub-fr.org || (build 2550/release)
Библиотека кодирования : VirtualDubMod build 2550/release
Видео
Идентификатор : 0
Формат : MPEG-4 Visual
Профиль формата : Advanced [email protected]
Параметр BVOP формата : 2
Параметр QPel формата : Нет
Параметр GMC формата : Без точки перехода
Параметр матрицы формата : Default (H.263)
Режим смешивания : Сжатый битовый поток
Идентификатор кодека : XVID
Идентификатор кодека/Подсказка : XviD
Продолжительность : 1 ч. 28 м.
Битрейт : 2100 Кбит/сек
Ширина : 720 пикселей
Высота : 400 пикселей
Соотношение сторон : 16:9
Частота кадров : 25,000 кадров/сек
Цветовое пространство : YUV
Субдискретизация насыщенности : 4:2:0
Битовая глубина : 8 бит
Тип развёртки : Прогрессивная
Метод сжатия : С потерями
Бит/(Пиксели*Кадры) : 0.292
Размер потока : 1,30 Гбайт (91%)
Библиотека кодирования : XviD 1.2.1 (UTC 2008-12-04)
Аудио
Идентификатор : 1
Формат : MPEG Audio
Версия формата : Version 1
Профиль формата : Layer 3
Идентификатор кодека : 55
Идентификатор кодека/Подсказка : MP3
Продолжительность : 1 ч. 28 м.
Вид битрейта : Постоянный
Битрейт : 192 Кбит/сек
Каналы : 2 канала
Частота : 48,0 КГц
Метод сжатия : С потерями
Размер потока : 122 Мбайт (8%)
Выравнивание : Соединение по промежуткам
Продолжительность промежутка : 40 мс. (1,00 видеокадр)
Время предзагрузки промежутка : 504 мс.
Библиотека кодирования : LAME3.99r
Настройки программы : -m s -V 4 -q 2 -lowpass 18.6 -b 192

Скриншоты

Яндекс.Метрика
Рейтинг@Mail.ru