[ Сегодня на трекере фрилич! Идет свободное скачивание без начисления Download ]

Если враг не сдается ... (Тимофей Левчук) [1982 г., военный, DVDRip]

 

Создавать темы 17-Ноя-2013 20:35

-Если враг не сдается ...-- Производство: СССР / Студия Довженко
Режиссер: Тимофей Левчук
Жанр: военный
Год выпуска: 1982 г.
Продолжительность: 01:17:13
Дата выхода DVD: 22 апреля 2010, «Мастер Тэйп»
В ролях: Владимир Талашко, Анатолий Пазенко, Валентин Кулик, Михаил Ульянов, Александр Мовчан, Вера Кузнецова, Яков Трипольский, Владимир Меньшов, Альгимантас Масюлис, Валентин Гафт...-Описание: Идет Вторая Мировая Война, советские войска готовят очередную операцию против фашистских войск. На дворе начало 1944 года, советские войска ведут наступления на всех фронтах. Новая операция должна открыть для советских войск путь на Балканы. Фильм подробно рассказывает о не самом известном сражении времен Второй Мировой Войны, о Корсунь-Шевченковском сражении. Но значение этого сражения переоценить сложно, ведь именно после победы в этом сражении Советская Армия получила возможность выйти на Балканы.-Сэмпл КиноПоиск
Качество видео: DVDRip
Контейнер: MKV
Видео кодек: H.264
Аудио кодек: AC3
Видео: 720x576 (16:9), 25.000 fps, AVC, 2 304 Kbps (0.222 bit/pixel)
Аудио: русский, оригинал, 48.0 KHz, 6 ch, AC-3, 384 Kbps, CBR (Russian)
Cубтитры: отсутствуют

Media Info

General
Complete name : D:\ВОЕННЫЕ\Esli.vrag.ne.sdaetsja.1982.x264.DVDRip.mkv
Format : Matroska
File size : 1.45 GiB
Duration : 1h 17mn
Overall bit rate : 2 691 Kbps
Encoded date : UTC 2012-10-24 22:32:14
Writing application : mkvmerge v2.1.0 ('Another Place To Fall') built on Aug 19 2007 13:40:07
Writing library : libebml v0.7.7 + libmatroska v0.8.1
Video
ID : 1
Format : AVC
Format/Info : Advanced Video Codec
Format profile : [email protected]
Format settings, CABAC : Yes
Format settings, ReFrames : 8 frames
Muxing mode : Container [email protected]
Codec ID : V_MPEG4/ISO/AVC
Duration : 1h 17mn
Bit rate : 2 254 Kbps
Nominal bit rate : 2 304 Kbps
Width : 720 pixels
Height : 576 pixels
Display aspect ratio : 16/9
Frame rate : 25.000 fps
Standard : PAL
Resolution : 24 bits
Colorimetry : 4:2:0
Scan type : Progressive
Bits/(Pixel*Frame) : 0.217
Stream size : 1.22 GiB (84%)
Writing library : x264 core 115 r1937 aa21558
Encoding settings : cabac=1 / ref=8 / deblock=1:-2:-2 / analyse=0x3:0x113 / me=umh / subme=8 / psy=1 / psy_rd=1.00:0.10 / mixed_ref=0 / me_range=32 / chroma_me=1 / trellis=2 / 8x8dct=1 / cqm=0 / deadzone=21,11 / fast_pskip=1 / chroma_qp_offset=-3 / threads=6 / sliced_threads=0 / nr=0 / decimate=1 / interlaced=0 / bluray_compat=0 / constrained_intra=0 / bframes=8 / b_pyramid=2 / b_adapt=2 / b_bias=0 / direct=3 / weightb=1 / open_gop=0 / weightp=0 / keyint=250 / keyint_min=25 / scenecut=40 / intra_refresh=0 / rc_lookahead=30 / rc=2pass / mbtree=1 / bitrate=2304 / ratetol=1.0 / qcomp=0.60 / qpmin=15 / qpmax=47 / qpstep=3 / cplxblur=20.0 / qblur=0.5 / ip_ratio=1.40 / aq=1:1.10
Language : English
Audio
ID : 2
Format : AC-3
Format/Info : Audio Coding 3
Codec ID : A_AC3
Duration : 1h 17mn
Bit rate mode : Constant
Bit rate : 384 Kbps
Channel(s) : 6 channels
Channel positions : Front: L C R, Surround: L R, LFE
Sampling rate : 48.0 KHz
Stream size : 212 MiB (14%)
Title : Русский
Language : Russian

Скриншот c названием фильма

Скриншоты

--http://www.youtube.com/watch?v=IlMjEFWdngw--
Яндекс.Метрика
Рейтинг@Mail.ru