VA - Modern Acoustic Blues - The Best (1988-2012) [MP3|320 кб/с]<Modern Acoustic Blues>

 

Создавать темы 18-Дек-2014 22:22

-VA - Modern Acoustic Blues - The Best (1988-2012)- Год: 1988-2012
Жанр: Modern Acoustic Blues
Продолжительность: 06:58:37
Кодек: MP3
Битрейт: 320 кб/с
Тип битрейта: CBR
Трек лист:
1. Buddy Guy And Junior Wells - Give Me My Coat And Shoes (3:49)
2. Buddy Guy And Junior Wells - Sweet Black Girl (3:32)
3. Buddy Guy And Junior Wells - Diggin' My Potatoes (4:27)
4. Buddy Guy And Junior Wells - Don't Leave Me (3:42)
5. Buddy Guy And Junior Wells - Rollin' And Tumblin' (4:33)
6. Buddy Guy And Junior Wells - Wrong Doing Woman (2:59)
7. Buddy Guy And Junior Wells - Catfish Blues (3:33)
8. Buddy Guy - Crawlin' Kingsnake (5:17)
9. Buddy Guy - Lucy Mae Blues (3:33)
10. Buddy Guy - Anna Lee (4:14)
11. Ash Grunwald - 180 (3:25)
12. Ash Grunwald - Port Campbell (5:36)

продолжение трек-листа&#58;

13. Carolina Chocolate Drops - Pretty Bird (4:06)
14. Carolina Chocolate Drops - Country Girl (3:23)
15. Keb' Mo' - Soon As I Get Paid (4:37)
16. Eric Bibb - With My Maker I Am One (3:41)
17. Eric Bibb - Flood Water (4:31)
18. Keb' Mo' - Perpetual Blues Machine (3:15)
19. Keb' Mo' - Am I Wrong (2:18)
20. Keb' Mo' - A Letter To Tracy (4:10)
21. Keb' Mo' - Love In Vain (3:05)
22. Eric Bibb - One Soul To Save (3:00)
23. Keb' Mo' - It Hurts Me Too (5:28)
24. Eric Bibb - Tell Riley (3:16)
25. Eric Bibb - A - Z Blues (3:14)
26. Eric Bibb With Staffan Astner - Walkin' Blues Again (5:08)
27. Chris Smither - Drive You Home Again (5:28)
28. Chris Smither - No Love Today (4:57)
29. Guy Davis - You Don't Know My Mind (2:45)
30. Guy Davis - Po' Boy, Great Long Ways From Home (4:26)
31. Guy Davis - Raining in my Soul (5:24)
32. Guy Davis - Sometimes I Wish (3:05)
33. Corey Harris - Sweatshop (3:56)
34. Corey Harris - Plantation Town (4:00)
35. Corey Harris - .44 Blues (7:27)
36. Corey Harris - Jack O'diamonds (2:37)
37. Keb' Mo' - Kind Hearted Woman Blues (3:29)
38. Keb' Mo' - Victims Of Comfort (3:21)
39. Keb' Mo' - Perpetual Blues Machine (3:15)
40. Keb' Mo' - The Itch (4:55)
41. Keb' Mo' - Grandma's Hands (3:30)
42. Keb' Mo' - Am I Wrong (2:19)
43. Otis Taylor - Looking For Some Heat (5:55)
44. Otis Taylor - Rain So Hard (5:55)
45. Otis Taylor - Sunday Morning (4:15)
46. Otis Taylor - Looking Over Your Fence (4:06)
47. Otis Taylor - Silver Dollar On My Head (3:44)
48. Otis Taylor - Lost My Guitar (4:36)
49. Otis Taylor - Few Feet Away (4:15)
50. Otis Taylor - Past Times (3:50)
51. Otis Taylor - Young Girl Down The Street (6:20)
52. Otis Taylor - Harry, Turn The Music Up (4:04)
53. Otis Taylor - If You Hope (5:57)
54. Cephas & Wiggins - Sick Bed Blues (4:33)
55. Cephas & Wiggins - Forgiveness (3:18)
56. Cephas & Wiggins - Bowling Green Strut (4:32)
57. Cephas & Wiggins - Broke And Hungry (5:01)
58. Cephas & Wiggins - Catfish Blues (5:52)
59. Cephas & Wiggins - Phil Wiggins / Cool Down (4:42)
60. Rory Block - Uncloudy Day (2:38)
61. Rory Block - Kind Hearted Woman Blues (3:11)
62. Rory Block - The Water Is Wide (3:40)
63. Rory Block - Me And The Devil Blues (3:17)
64. Alvin Youngblood Hart - Illinois Blues (4:16)
65. Ray Wylie Hubbard - A. Enlightenment B. Endarkenment (Hint: There Is No C) (3:08)
66. Ray Wylie Hubbard - Down Home Country Blues (3:02)
67. Ray Wylie Hubbard - Wasp's Nest (3:54)
68. Ray Wylie Hubbard - Tornado Ripe (5:34)
69. Ray Wylie Hubbard - Opium (3:32)
70. Watermelon Slim - If There Is Any Heaven (3:53)
71. Alvin Youngblood Hart - Big Mama's Door (3:51)
72. Roy Rogers Norton Buffalo - Is It Love (4:06)
73. Roy Rogers Norton Buffalo - Move On Way From Here (5:06)
74. Roy Rogers Norton Buffalo - Tender Heart (4:51)
75. Kelly Joe Phelps - Hosanna (8:52)
76. Taj Mahal - Leaving Trunk (4:42)
77. Taj Mahal - Statesboro Blues (2:55)
78. Taj Mahal - Blues With A Feeling (3:54)
79. Taj Mahal - Senor Blues (6:45)
80. Taj Mahal - Squat That Rabbit (4:41)
81. Taj Mahal - Diving Duck Blues (2:36)
82. Taj Mahal - Fishin' Blues (3:08)
83. Taj Mahal - Mind Your Business (2:42)
84. Saffire - The Uppity Blues Wom - Going Down To The River (3:13)
85. Various Artists - Most Likely You Go Your Way And I'll Go Mine - Sue Foley (3:55)
86. Saffire - The Uppity Blues Women - Too Much Butt (3:38)
87. Saffire - The Uppity Blues Women - Haste Makes Waste (2:54)
88. Saffire - The Uppity Blues Wom - The Bad Times (4:41)
89. Seasick Steve - 8 Ball (3:38)
90. Seasick Steve - Burnin' Up (4:07)
91. Seasick Steve - Underneath A Blue And Cloudless Sky (3:05)
92. John Campbell - Bluebird (4:28)
93. John Campbell - Sittin' Here Thinkin' (6:44)
94. Doug Macleod - Something Dark Is Walking (4:30)
95. Doug Macleod - Angel In Hell (5:57)
96. Doug Macleod - Sheep Of A Different Color (5:52)
97. Alaska Kalan - Burnside (4:16)
98. Alaska Kalan - Put Me Down (3:00)
99. Alaska Kalan - 99 Days (3:58)
100. Alaska Kalan - Good City (3:46)

mediainfo

Общее
Полное имя : D:\MEDIA\Audio\Modern Acoustic Blues\01-give_me_my_coat_and_shoes.mp3
Формат : MPEG Audio
Размер файла : 8,75 Мбайт
Продолжительность : 3 м. 49 с.
Режим общего битрейта : Постоянный
Общий поток : 320 Кбит/сек
Альбом : Alone & Acoustic
Трек : Give Me My Coat And Shoes
Трек/Положение : 1
Исполнитель : Buddy Guy And Junior Wells
Библиотека кодирования : LAME3.93
Правообладатель : Make Love Not War
Примечание : Òîëüêî äëÿ îçíàêîìëåíèÿ
Аудио
Формат : MPEG Audio
Версия формата : Version 1
Профиль формата : Layer 3
Режим : Joint stereo
Расширение режима : MS Stereo
Продолжительность : 3 м. 49 с.
Вид битрейта : Постоянный
Битрейт : 320 Кбит/сек
Каналы : 2 канала
Частота : 44,1 КГц
Метод сжатия : С потерями
Размер потока : 8,74 Мбайт (100%)
Библиотека кодирования : LAME3.93
Общее
Полное имя : D:\MEDIA\Audio\Modern Acoustic Blues\02-sweet_black_girl.mp3
Формат : MPEG Audio
Размер файла : 8,09 Мбайт
Продолжительность : 3 м. 32 с.
Режим общего битрейта : Постоянный
Общий поток : 320 Кбит/сек
Альбом : Alone & Acoustic
Трек : Sweet Black Girl
Трек/Положение : 3
Исполнитель : Buddy Guy And Junior Wells
Библиотека кодирования : LAME3.93
Правообладатель : Make Love Not War
Примечание : Òîëüêî äëÿ îçíàêîìëåíèÿ
Аудио
Формат : MPEG Audio
Версия формата : Version 1
Профиль формата : Layer 3
Режим : Joint stereo
Продолжительность : 3 м. 32 с.
Вид битрейта : Постоянный
Битрейт : 320 Кбит/сек
Каналы : 2 канала
Частота : 44,1 КГц
Метод сжатия : С потерями
Размер потока : 8,09 Мбайт (100%)
Библиотека кодирования : LAME3.93
Общее
Полное имя : D:\MEDIA\Audio\Modern Acoustic Blues\03-diggin_my_potatoes.mp3
Формат : MPEG Audio
Размер файла : 10,2 Мбайт
Продолжительность : 4 м. 27 с.
Режим общего битрейта : Постоянный
Общий поток : 320 Кбит/сек
Альбом : Alone & Acoustic
Трек : Diggin' My Potatoes
Трек/Положение : 4
Исполнитель : Buddy Guy And Junior Wells
Библиотека кодирования : LAME3.93
Правообладатель : Make Love Not War
Примечание : Òîëüêî äëÿ îçíàêîìëåíèÿ
Аудио
Формат : MPEG Audio
Версия формата : Version 1
Профиль формата : Layer 3
Режим : Joint stereo
Продолжительность : 4 м. 28 с.
Вид битрейта : Постоянный
Битрейт : 320 Кбит/сек
Каналы : 2 канала
Частота : 44,1 КГц
Метод сжатия : С потерями
Размер потока : 10,2 Мбайт (100%)
Библиотека кодирования : LAME3.93
Общее
Полное имя : D:\MEDIA\Audio\Modern Acoustic Blues\04-dont_leave_me.mp3
Формат : MPEG Audio
Размер файла : 8,50 Мбайт
Продолжительность : 3 м. 42 с.
Режим общего битрейта : Постоянный
Общий поток : 320 Кбит/сек
Альбом : Alone & Acoustic
Трек : Don't Leave Me
Трек/Положение : 5
Исполнитель : Buddy Guy And Junior Wells
Библиотека кодирования : LAME3.93
Правообладатель : Make Love Not War
Примечание : Òîëüêî äëÿ îçíàêîìëåíèÿ
Аудио
Формат : MPEG Audio
Версия формата : Version 1
Профиль формата : Layer 3
Режим : Joint stereo
Продолжительность : 3 м. 43 с.
Вид битрейта : Постоянный
Битрейт : 320 Кбит/сек
Каналы : 2 канала
Частота : 44,1 КГц
Метод сжатия : С потерями
Размер потока : 8,50 Мбайт (100%)
Библиотека кодирования : LAME3.93
Общее
Полное имя : D:\MEDIA\Audio\Modern Acoustic Blues\05-rollin_and_tumblin.mp3
Формат : MPEG Audio
Размер файла : 10,4 Мбайт
Продолжительность : 4 м. 33 с.
Режим общего битрейта : Постоянный
Общий поток : 320 Кбит/сек
Альбом : Alone & Acoustic
Трек : Rollin' And Tumblin'
Трек/Положение : 6
Исполнитель : Buddy Guy And Junior Wells
Библиотека кодирования : LAME3.93
Правообладатель : Make Love Not War
Примечание : Òîëüêî äëÿ îçíàêîìëåíèÿ
Аудио
Формат : MPEG Audio
Версия формата : Version 1
Профиль формата : Layer 3
Режим : Joint stereo
Расширение режима : MS Stereo
Продолжительность : 4 м. 33 с.
Вид битрейта : Постоянный
Битрейт : 320 Кбит/сек
Каналы : 2 канала
Частота : 44,1 КГц
Метод сжатия : С потерями
Размер потока : 10,4 Мбайт (100%)
Библиотека кодирования : LAME3.93
Общее
Полное имя : D:\MEDIA\Audio\Modern Acoustic Blues\06-wrong_doing_woman.mp3
Формат : MPEG Audio
Размер файла : 6,86 Мбайт
Продолжительность : 2 м. 59 с.
Режим общего битрейта : Постоянный
Общий поток : 320 Кбит/сек
Альбом : Alone & Acoustic
Трек : Wrong Doing Woman
Трек/Положение : 9
Исполнитель : Buddy Guy And Junior Wells
Библиотека кодирования : LAME3.93
Правообладатель : Make Love Not War
Примечание : Òîëüêî äëÿ îçíàêîìëåíèÿ
Аудио
Формат : MPEG Audio
Версия формата : Version 1
Профиль формата : Layer 3
Режим : Joint stereo
Расширение режима : MS Stereo
Продолжительность : 3 м. 0 с.
Вид битрейта : Постоянный
Битрейт : 320 Кбит/сек
Каналы : 2 канала
Частота : 44,1 КГц
Метод сжатия : С потерями
Размер потока : 6,86 Мбайт (100%)
Библиотека кодирования : LAME3.93
Общее
Полное имя : D:\MEDIA\Audio\Modern Acoustic Blues\07-catfish_blues.mp3
Формат : MPEG Audio
Размер файла : 8,15 Мбайт
Продолжительность : 3 м. 33 с.
Режим общего битрейта : Постоянный
Общий поток : 320 Кбит/сек
Альбом : Alone & Acoustic
Трек : Catfish Blues
Трек/Положение : 12
Исполнитель : Buddy Guy And Junior Wells
Библиотека кодирования : LAME3.93
Правообладатель : Make Love Not War
Примечание : Òîëüêî äëÿ îçíàêîìëåíèÿ
Аудио
Формат : MPEG Audio
Версия формата : Version 1
Профиль формата : Layer 3
Режим : Joint stereo
Продолжительность : 3 м. 33 с.
Вид битрейта : Постоянный
Битрейт : 320 Кбит/сек
Каналы : 2 канала
Частота : 44,1 КГц
Метод сжатия : С потерями
Размер потока : 8,15 Мбайт (100%)
Библиотека кодирования : LAME3.93
Общее
Полное имя : D:\MEDIA\Audio\Modern Acoustic Blues\08-crawlin_kingsnake.mp3
Формат : MPEG Audio
Размер файла : 12,1 Мбайт
Продолжительность : 5 м. 17 с.
Режим общего битрейта : Постоянный
Общий поток : 320 Кбит/сек
Альбом : Blues Singer
Трек : Crawlin' Kingsnake
Трек/Положение : 2
Исполнитель : Buddy Guy
Дата записи : 2003
Библиотека кодирования : LAME3.98r
Правообладатель : Make Love Not War
Примечание : Òîëüêî äëÿ îçíàêîìëåíèÿ
Аудио
Формат : MPEG Audio
Версия формата : Version 1
Профиль формата : Layer 3
Режим : Joint stereo
Расширение режима : MS Stereo
Продолжительность : 5 м. 17 с.
Вид битрейта : Постоянный
Битрейт : 320 Кбит/сек
Каналы : 2 канала
Частота : 44,1 КГц
Метод сжатия : С потерями
Размер потока : 12,1 Мбайт (100%)
Библиотека кодирования : LAME3.98r
Настройки программы : -m j -V 4 -q 3 -lowpass 20.5
Общее
Полное имя : D:\MEDIA\Audio\Modern Acoustic Blues\09-lucy_mae_blues.mp3
Формат : MPEG Audio
Размер файла : 8,16 Мбайт
Продолжительность : 3 м. 33 с.
Режим общего битрейта : Постоянный
Общий поток : 320 Кбит/сек
Альбом : Blues Singer
Трек : Lucy Mae Blues
Трек/Положение : 3
Исполнитель : Buddy Guy
Дата записи : 2003
Библиотека кодирования : LAME3.98r
Правообладатель : Make Love Not War
Примечание : Òîëüêî äëÿ îçíàêîìëåíèÿ
Аудио
Формат : MPEG Audio
Версия формата : Version 1
Профиль формата : Layer 3
Режим : Joint stereo
Расширение режима : MS Stereo
Продолжительность : 3 м. 33 с.
Вид битрейта : Постоянный
Битрейт : 320 Кбит/сек
Каналы : 2 канала
Частота : 44,1 КГц
Метод сжатия : С потерями
Размер потока : 8,15 Мбайт (100%)
Библиотека кодирования : LAME3.98r
Настройки программы : -m j -V 4 -q 3 -lowpass 20.5
Общее
Полное имя : D:\MEDIA\Audio\Modern Acoustic Blues\10-anna_lee.mp3
Формат : MPEG Audio
Размер файла : 9,73 Мбайт
Продолжительность : 4 м. 14 с.
Режим общего битрейта : Постоянный
Общий поток : 320 Кбит/сек
Альбом : Blues Singer
Трек : Anna Lee
Трек/Положение : 11
Исполнитель : Buddy Guy
Дата записи : 2003
Библиотека кодирования : LAME3.98r
Правообладатель : Make Love Not War
Примечание : Òîëüêî äëÿ îçíàêîìëåíèÿ
Аудио
Формат : MPEG Audio
Версия формата : Version 1
Профиль формата : Layer 3
Режим : Joint stereo
Продолжительность : 4 м. 15 с.
Вид битрейта : Постоянный
Битрейт : 320 Кбит/сек
Каналы : 2 канала
Частота : 44,1 КГц
Метод сжатия : С потерями
Размер потока : 9,73 Мбайт (100%)
Библиотека кодирования : LAME3.98r
Настройки программы : -m j -V 4 -q 3 -lowpass 20.5
Общее
Полное имя : D:\MEDIA\Audio\Modern Acoustic Blues\100-good_city.mp3
Формат : MPEG Audio
Размер файла : 8,65 Мбайт
Продолжительность : 3 м. 46 с.
Режим общего битрейта : Постоянный
Общий поток : 320 Кбит/сек
Альбом : Zen.. And The Art Of Blues
Трек : Good City
Трек/Положение : 1
Исполнитель : Alaska Kalan
Дата записи : 2006
Правообладатель : Make Love Not War
Примечание : Òîëüêî äëÿ îçíàêîìëåíèÿ
Аудио
Формат : MPEG Audio
Версия формата : Version 1
Профиль формата : Layer 3
Режим : Joint stereo
Продолжительность : 3 м. 46 с.
Вид битрейта : Постоянный
Битрейт : 320 Кбит/сек
Каналы : 2 канала
Частота : 44,1 КГц
Метод сжатия : С потерями
Размер потока : 8,65 Мбайт (100%)
Общее
Полное имя : D:\MEDIA\Audio\Modern Acoustic Blues\11-180.mp3
Формат : MPEG Audio
Размер файла : 7,84 Мбайт
Продолжительность : 3 м. 25 с.
Режим общего битрейта : Постоянный
Общий поток : 320 Кбит/сек
Альбом : Trouble's Door
Альбом/Исполнитель : Ash Grunwald
Трек : 180
Трек/Положение : 5
Исполнитель : Ash Grunwald
Издатель : Shock
Жанр : Rock
Дата записи : 2012
Библиотека кодирования : LAME3.99r
Примечание : Òîëüêî äëÿ îçíàêîìëåíèÿ
Аудио
Формат : MPEG Audio
Версия формата : Version 1
Профиль формата : Layer 3
Продолжительность : 3 м. 25 с.
Вид битрейта : Постоянный
Битрейт : 320 Кбит/сек
Каналы : 2 канала
Частота : 44,1 КГц
Метод сжатия : С потерями
Размер потока : 7,83 Мбайт (100%)
Библиотека кодирования : LAME3.99r
Настройки программы : -m s -V 4 -q 3 -lowpass 20.5
Общее
Полное имя : D:\MEDIA\Audio\Modern Acoustic Blues\12-port_campbell.mp3
Формат : MPEG Audio
Размер файла : 12,8 Мбайт
Продолжительность : 5 м. 36 с.
Режим общего битрейта : Постоянный
Общий поток : 320 Кбит/сек
Альбом : Fish Out Of Water
Альбом/Исполнитель : Ash Grunwald
Трек : Port Campbell
Трек/Положение : 11
Исполнитель : Ash Grunwald
Издатель : Delta Groove Productions
Жанр : Rock
Дата записи : 2008
Примечание : Òîëüêî äëÿ îçíàêîìëåíèÿ
Аудио
Формат : MPEG Audio
Версия формата : Version 1
Профиль формата : Layer 3
Режим : Joint stereo
Продолжительность : 5 м. 36 с.
Вид битрейта : Постоянный
Битрейт : 320 Кбит/сек
Каналы : 2 канала
Частота : 44,1 КГц
Метод сжатия : С потерями
Размер потока : 12,8 Мбайт (100%)
Общее
Полное имя : D:\MEDIA\Audio\Modern Acoustic Blues\13-pretty_bird.mp3
Формат : MPEG Audio
Размер файла : 9,40 Мбайт
Продолжительность : 4 м. 6 с.
Режим общего битрейта : Постоянный
Общий поток : 320 Кбит/сек
Альбом : Leaving Eden
Трек : Pretty Bird
Трек/Положение : 15
Исполнитель : Carolina Chocolate Drops
Дата записи : 2012
Библиотека кодирования : LAME3.99r
Правообладатель : Make Love Not War
Примечание : Òîëüêî äëÿ îçíàêîìëåíèÿ
Аудио
Формат : MPEG Audio
Версия формата : Version 1
Профиль формата : Layer 3
Режим : Joint stereo
Расширение режима : MS Stereo
Продолжительность : 4 м. 6 с.
Вид битрейта : Постоянный
Битрейт : 320 Кбит/сек
Каналы : 2 канала
Частота : 44,1 КГц
Метод сжатия : С потерями
Размер потока : 9,39 Мбайт (100%)
Библиотека кодирования : LAME3.99r
Настройки программы : -m j -V 4 -q 3 -lowpass 20.5
Общее
Полное имя : D:\MEDIA\Audio\Modern Acoustic Blues\14-country_girl.mp3
Формат : MPEG Audio
Размер файла : 7,77 Мбайт
Продолжительность : 3 м. 23 с.
Режим общего битрейта : Постоянный
Общий поток : 320 Кбит/сек
Альбом : Leaving Eden
Трек : Country Girl
Трек/Положение : 5
Исполнитель : Carolina Chocolate Drops
Дата записи : 2012
Библиотека кодирования : LAME3.99r
Правообладатель : Make Love Not War
Примечание : Òîëüêî äëÿ îçíàêîìëåíèÿ
Аудио
Формат : MPEG Audio
Версия формата : Version 1
Профиль формата : Layer 3
Режим : Joint stereo
Расширение режима : MS Stereo
Продолжительность : 3 м. 23 с.
Вид битрейта : Постоянный
Битрейт : 320 Кбит/сек
Каналы : 2 канала
Частота : 44,1 КГц
Метод сжатия : С потерями
Размер потока : 7,77 Мбайт (100%)
Библиотека кодирования : LAME3.99r
Настройки программы : -m j -V 4 -q 3 -lowpass 20.5
Общее
Полное имя : D:\MEDIA\Audio\Modern Acoustic Blues\15-soon_as_i_get_paid.mp3
Формат : MPEG Audio
Размер файла : 10,6 Мбайт
Продолжительность : 4 м. 37 с.
Режим общего битрейта : Постоянный
Общий поток : 320 Кбит/сек
Альбом : Martin Scorsese Presents The B
Альбом/Исполнитель : Keb' Mo'
Трек : Soon As I Get Paid
Трек/Положение : 1
Исполнитель : Keb' Mo'
Композитор : John Lewis Parker/Kevin Moore
Издатель : Sony Music Distribution
Жанр : Other
Дата записи : 2003
Библиотека кодирования : LAME3.97.3
Примечание : Òîëüêî äëÿ îçíàêîìëåíèÿ
Аудио
Формат : MPEG Audio
Версия формата : Version 1
Профиль формата : Layer 3
Режим : Joint stereo
Продолжительность : 4 м. 37 с.
Вид битрейта : Постоянный
Битрейт : 320 Кбит/сек
Каналы : 2 канала
Частота : 44,1 КГц
Метод сжатия : С потерями
Размер потока : 10,6 Мбайт (100%)
Библиотека кодирования : LAME3.97.3
Общее
Полное имя : D:\MEDIA\Audio\Modern Acoustic Blues\16-with_my_maker_i_am_one.mp3
Формат : MPEG Audio
Размер файла : 8,44 Мбайт
Продолжительность : 3 м. 41 с.
Режим общего битрейта : Постоянный
Общий поток : 320 Кбит/сек
Альбом : Booker's Guitar
Трек : With My Maker I Am One
Трек/Положение : 2
Исполнитель : Eric Bibb
Дата записи : 2010
Библиотека кодирования : LAME3.98
Правообладатель : Make Love Not War
Примечание : Òîëüêî äëÿ îçíàêîìëåíèÿ
Аудио
Формат : MPEG Audio
Версия формата : Version 1
Профиль формата : Layer 3
Продолжительность : 3 м. 41 с.
Вид битрейта : Постоянный
Битрейт : 320 Кбит/сек
Каналы : 2 канала
Частота : 44,1 КГц
Метод сжатия : С потерями
Размер потока : 8,44 Мбайт (100%)
Библиотека кодирования : LAME3.98
Настройки программы : -m s -V 4 -q 0 -lowpass 20.5
Общее
Полное имя : D:\MEDIA\Audio\Modern Acoustic Blues\17-flood_water.mp3
Формат : MPEG Audio
Размер файла : 10,4 Мбайт
Продолжительность : 4 м. 31 с.
Режим общего битрейта : Постоянный
Общий поток : 320 Кбит/сек
Альбом : Booker's Guitar
Трек : Flood Water
Трек/Положение : 3
Исполнитель : Eric Bibb
Дата записи : 2010
Библиотека кодирования : LAME3.98
Правообладатель : Make Love Not War
Примечание : Òîëüêî äëÿ îçíàêîìëåíèÿ
Аудио
Формат : MPEG Audio
Версия формата : Version 1
Профиль формата : Layer 3
Продолжительность : 4 м. 32 с.
Вид битрейта : Постоянный
Битрейт : 320 Кбит/сек
Каналы : 2 канала
Частота : 44,1 КГц
Метод сжатия : С потерями
Размер потока : 10,4 Мбайт (100%)
Библиотека кодирования : LAME3.98
Настройки программы : -m s -V 4 -q 0 -lowpass 20.5
Общее
Полное имя : D:\MEDIA\Audio\Modern Acoustic Blues\18-perpetual_blues_machine.mp3
Формат : MPEG Audio
Размер файла : 7,45 Мбайт
Продолжительность : 3 м. 15 с.
Режим общего битрейта : Постоянный
Общий поток : 320 Кбит/сек
Альбом : Martin Scorsese Presents The Blues: Keb' Mo'
Трек : Perpetual Blues Machine
Трек/Положение : 3
Исполнитель : Keb' Mo'
Дата записи : 2003
Библиотека кодирования : LAME3.97.3ЄЄЄЄЄЄЄЄЄЄ
Правообладатель : Make Love Not War
Примечание : Òîëüêî äëÿ îçíàêîìëåíèÿ
Аудио
Формат : MPEG Audio
Версия формата : Version 1
Профиль формата : Layer 3
Режим : Joint stereo
Расширение режима : MS Stereo
Продолжительность : 3 м. 15 с.
Вид битрейта : Постоянный
Битрейт : 320 Кбит/сек
Каналы : 2 канала
Частота : 44,1 КГц
Метод сжатия : С потерями
Размер потока : 7,45 Мбайт (100%)
Библиотека кодирования : LAME3.97.3ЄЄЄЄЄЄЄЄЄЄ
Общее
Полное имя : D:\MEDIA\Audio\Modern Acoustic Blues\19-am_i_wrong.mp3
Формат : MPEG Audio
Размер файла : 5,29 Мбайт
Продолжительность : 2 м. 18 с.
Режим общего битрейта : Постоянный
Общий поток : 320 Кбит/сек
Альбом : Martin Scorsese Presents The Blues: Keb' Mo'
Трек : Am I Wrong
Трек/Положение : 7
Исполнитель : Keb' Mo'
Дата записи : 2003
Библиотека кодирования : LAME3.97.3
Правообладатель : Make Love Not War
Примечание : Òîëüêî äëÿ îçíàêîìëåíèÿ
Аудио
Формат : MPEG Audio
Версия формата : Version 1
Профиль формата : Layer 3
Режим : Joint stereo
Расширение режима : MS Stereo
Продолжительность : 2 м. 18 с.
Вид битрейта : Постоянный
Битрейт : 320 Кбит/сек
Каналы : 2 канала
Частота : 44,1 КГц
Метод сжатия : С потерями
Размер потока : 5,28 Мбайт (100%)
Библиотека кодирования : LAME3.97.3
Общее
Полное имя : D:\MEDIA\Audio\Modern Acoustic Blues\20-a_letter_to_tracy.mp3
Формат : MPEG Audio
Размер файла : 9,56 Мбайт
Продолжительность : 4 м. 10 с.
Режим общего битрейта : Постоянный
Общий поток : 320 Кбит/сек
Альбом : Martin Scorsese Presents The Blues: Keb' Mo'
Трек : A Letter To Tracy
Трек/Положение : 8
Исполнитель : Keb' Mo'
Дата записи : 2003
Библиотека кодирования : LAME3.97.3
Правообладатель : Make Love Not War
Примечание : Òîëüêî äëÿ îçíàêîìëåíèÿ
Аудио
Формат : MPEG Audio
Версия формата : Version 1
Профиль формата : Layer 3
Режим : Joint stereo
Продолжительность : 4 м. 10 с.
Вид битрейта : Постоянный
Битрейт : 320 Кбит/сек
Каналы : 2 канала
Частота : 44,1 КГц
Метод сжатия : С потерями
Размер потока : 9,55 Мбайт (100%)
Библиотека кодирования : LAME3.97.3
Общее
Полное имя : D:\MEDIA\Audio\Modern Acoustic Blues\21-love_in_vain.mp3
Формат : MPEG Audio
Размер файла : 7,09 Мбайт
Продолжительность : 3 м. 5 с.
Режим общего битрейта : Постоянный
Общий поток : 320 Кбит/сек
Альбом : Martin Scorsese Presents The Blues: Keb' Mo'
Трек : Love In Vain
Трек/Положение : 9
Исполнитель : Keb' Mo'
Дата записи : 2003
Библиотека кодирования : LAME3.97.3
Правообладатель : Make Love Not War
Примечание : Òîëüêî äëÿ îçíàêîìëåíèÿ
Аудио
Формат : MPEG Audio
Версия формата : Version 1
Профиль формата : Layer 3
Режим : Joint stereo
Продолжительность : 3 м. 5 с.
Вид битрейта : Постоянный
Битрейт : 320 Кбит/сек
Каналы : 2 канала
Частота : 44,1 КГц
Метод сжатия : С потерями
Размер потока : 7,08 Мбайт (100%)
Библиотека кодирования : LAME3.97.3
Общее
Полное имя : D:\MEDIA\Audio\Modern Acoustic Blues\22-one_soul_to_save.mp3
Формат : MPEG Audio
Размер файла : 6,88 Мбайт
Продолжительность : 3 м. 0 с.
Режим общего битрейта : Постоянный
Общий поток : 320 Кбит/сек
Альбом : Booker's Guitar
Трек : One Soul To Save
Трек/Положение : 10
Исполнитель : Eric Bibb
Дата записи : 2010
Библиотека кодирования : LAME3.98
Правообладатель : Make Love Not War
Примечание : Òîëüêî äëÿ îçíàêîìëåíèÿ
Аудио
Формат : MPEG Audio
Версия формата : Version 1
Профиль формата : Layer 3
Продолжительность : 3 м. 0 с.
Вид битрейта : Постоянный
Битрейт : 320 Кбит/сек
Каналы : 2 канала
Частота : 44,1 КГц
Метод сжатия : С потерями
Размер потока : 6,87 Мбайт (100%)
Библиотека кодирования : LAME3.98
Настройки программы : -m s -V 4 -q 0 -lowpass 20.5
Общее
Полное имя : D:\MEDIA\Audio\Modern Acoustic Blues\23-it_hurts_me_too.mp3
Формат : MPEG Audio
Размер файла : 12,5 Мбайт
Продолжительность : 5 м. 28 с.
Режим общего битрейта : Постоянный
Общий поток : 320 Кбит/сек
Альбом : Martin Scorsese Presents The Blues: Keb' Mo'
Трек : It Hurts Me Too
Трек/Положение : 13
Исполнитель : Keb' Mo'
Дата записи : 2003
Библиотека кодирования : LAME3.97.3
Правообладатель : Make Love Not War
Примечание : Òîëüêî äëÿ îçíàêîìëåíèÿ
Аудио
Формат : MPEG Audio
Версия формата : Version 1
Профиль формата : Layer 3
Режим : Joint stereo
Расширение режима : MS Stereo
Продолжительность : 5 м. 28 с.
Вид битрейта : Постоянный
Битрейт : 320 Кбит/сек
Каналы : 2 канала
Частота : 44,1 КГц
Метод сжатия : С потерями
Размер потока : 12,5 Мбайт (100%)
Библиотека кодирования : LAME3.97.3
Общее
Полное имя : D:\MEDIA\Audio\Modern Acoustic Blues\24-tell_riley.mp3
Формат : MPEG Audio
Размер файла : 7,51 Мбайт
Продолжительность : 3 м. 16 с.
Режим общего битрейта : Постоянный
Общий поток : 320 Кбит/сек
Альбом : Booker's Guitar
Трек : Tell Riley
Трек/Положение : 14
Исполнитель : Eric Bibb
Дата записи : 2010
Библиотека кодирования : LAME3.98
Правообладатель : Make Love Not War
Примечание : Òîëüêî äëÿ îçíàêîìëåíèÿ
Аудио
Формат : MPEG Audio
Версия формата : Version 1
Профиль формата : Layer 3
Продолжительность : 3 м. 17 с.
Вид битрейта : Постоянный
Битрейт : 320 Кбит/сек
Каналы : 2 канала
Частота : 44,1 КГц
Метод сжатия : С потерями
Размер потока : 7,51 Мбайт (100%)
Библиотека кодирования : LAME3.98
Настройки программы : -m s -V 4 -q 0 -lowpass 20.5
Общее
Полное имя : D:\MEDIA\Audio\Modern Acoustic Blues\25-a_-_z_blues.mp3
Формат : MPEG Audio
Размер файла : 7,44 Мбайт
Продолжительность : 3 м. 14 с.
Режим общего битрейта : Постоянный
Общий поток : 320 Кбит/сек
Альбом : Booker's Guitar
Альбом/Исполнитель : Eric Bibb
Трек : A - Z Blues
Трек/Положение : 15
Исполнитель : Eric Bibb
Композитор : Eric Bibb
Издатель : Telarc Distribution
Жанр : Other
Дата записи : 2010
Библиотека кодирования : LAME3.98
Примечание : Òîëüêî äëÿ îçíàêîìëåíèÿ
Аудио
Формат : MPEG Audio
Версия формата : Version 1
Профиль формата : Layer 3
Продолжительность : 3 м. 15 с.
Вид битрейта : Постоянный
Битрейт : 320 Кбит/сек
Каналы : 2 канала
Частота : 44,1 КГц
Метод сжатия : С потерями
Размер потока : 7,43 Мбайт (100%)
Библиотека кодирования : LAME3.98
Настройки программы : -m s -V 4 -q 0 -lowpass 20.5
Общее
Полное имя : D:\MEDIA\Audio\Modern Acoustic Blues\26-walkin_blues_again.mp3
Формат : MPEG Audio
Размер файла : 11,8 Мбайт
Продолжительность : 5 м. 8 с.
Режим общего битрейта : Постоянный
Общий поток : 320 Кбит/сек
Альбом : Troubadour Live
Альбом/Исполнитель : Eric Bibb
Трек : Walkin' Blues Again
Трек/Положение : 7
Исполнитель : Eric Bibb With Staffan Astner
Композитор : Eric Bibb
Издатель : Telarc Blues
Жанр : Other
Дата записи : 2011
Библиотека кодирования : LAME3.93
Примечание : Òîëüêî äëÿ îçíàêîìëåíèÿ
Аудио
Формат : MPEG Audio
Версия формата : Version 1
Профиль формата : Layer 3
Продолжительность : 5 м. 9 с.
Вид битрейта : Постоянный
Битрейт : 320 Кбит/сек
Каналы : 2 канала
Частота : 44,1 КГц
Метод сжатия : С потерями
Размер потока : 11,8 Мбайт (100%)
Библиотека кодирования : LAME3.93
Настройки программы : -m s -V 4 -q 0
Общее
Полное имя : D:\MEDIA\Audio\Modern Acoustic Blues\27-drive_you_home_again.mp3
Формат : MPEG Audio
Размер файла : 12,6 Мбайт
Продолжительность : 5 м. 28 с.
Режим общего битрейта : Постоянный
Общий поток : 320 Кбит/сек
Альбом : Drive You Home Again
Альбом/Исполнитель : Chris Smither
Трек : Drive You Home Again
Трек/Положение : 1
Исполнитель : Chris Smither
Композитор : Chris Smither
Издатель : Hightone
Жанр : Other
Дата записи : 1999
Примечание : Òîëüêî äëÿ îçíàêîìëåíèÿ
Аудио
Формат : MPEG Audio
Версия формата : Version 1
Профиль формата : Layer 3
Режим : Joint stereo
Расширение режима : MS Stereo
Продолжительность : 5 м. 29 с.
Вид битрейта : Постоянный
Битрейт : 320 Кбит/сек
Каналы : 2 канала
Частота : 44,1 КГц
Метод сжатия : С потерями
Размер потока : 12,5 Мбайт (100%)
Общее
Полное имя : D:\MEDIA\Audio\Modern Acoustic Blues\28-no_love_today.mp3
Формат : MPEG Audio
Размер файла : 11,4 Мбайт
Продолжительность : 4 м. 57 с.
Режим общего битрейта : Постоянный
Общий поток : 320 Кбит/сек
Альбом : Drive You Home Again
Трек : No Love Today
Трек/Положение : 3
Исполнитель : Chris Smither
Дата записи : 1999
Правообладатель : Make Love Not War
Примечание : Òîëüêî äëÿ îçíàêîìëåíèÿ
Аудио
Формат : MPEG Audio
Версия формата : Version 1
Профиль формата : Layer 3
Режим : Joint stereo
Расширение режима : MS Stereo
Продолжительность : 4 м. 57 с.
Вид битрейта : Постоянный
Битрейт : 320 Кбит/сек
Каналы : 2 канала
Частота : 44,1 КГц
Метод сжатия : С потерями
Размер потока : 11,4 Мбайт (100%)
Общее
Полное имя : D:\MEDIA\Audio\Modern Acoustic Blues\29-Guy Davis - You Don't Know My Mind.mp3
Формат : MPEG Audio
Размер файла : 6,30 Мбайт
Продолжительность : 2 м. 45 с.
Режим общего битрейта : Постоянный
Общий поток : 320 Кбит/сек
Трек : You Don't Know My Mind
Трек/Положение : 05
Исполнитель : Guy Davis
Жанр : Blues
Дата записи : 1999
Библиотека кодирования : LAME3.98
Аудио
Формат : MPEG Audio
Версия формата : Version 1
Профиль формата : Layer 3
Продолжительность : 2 м. 45 с.
Вид битрейта : Постоянный
Битрейт : 320 Кбит/сек
Каналы : 2 канала
Частота : 44,1 КГц
Метод сжатия : С потерями
Размер потока : 6,30 Мбайт (100%)
Библиотека кодирования : LAME3.98
Настройки программы : -m s -V 4 -q 0 -lowpass 20.5
Общее
Полное имя : D:\MEDIA\Audio\Modern Acoustic Blues\30-Guy Davis - Po' Boy, Great Long Ways From Home.mp3
Формат : MPEG Audio
Размер файла : 10,2 Мбайт
Продолжительность : 4 м. 26 с.
Режим общего битрейта : Постоянный
Общий поток : 320 Кбит/сек
Альбом : Skunkmello
Альбом/Исполнитель : Guy Davis
Трек : Po' Boy, Great Long Ways From Home
Трек/Положение : 6
Трек/Всего : 14
Исполнитель : Guy Davis
Жанр : Blues
Дата записи : 2006
Библиотека кодирования : LAME3.93
Примечание :
DISCID :
Аудио
Формат : MPEG Audio
Версия формата : Version 1
Профиль формата : Layer 3
Продолжительность : 4 м. 26 с.
Вид битрейта : Постоянный
Битрейт : 320 Кбит/сек
Каналы : 2 канала
Частота : 44,1 КГц
Метод сжатия : С потерями
Размер потока : 10,2 Мбайт (100%)
Библиотека кодирования : LAME3.93
Настройки программы : -m s -V 4 -q 0
Общее
Полное имя : D:\MEDIA\Audio\Modern Acoustic Blues\31-Guy Davis - Raining in my Soul.mp3
Формат : MPEG Audio
Размер файла : 12,4 Мбайт
Продолжительность : 5 м. 24 с.
Режим общего битрейта : Постоянный
Общий поток : 320 Кбит/сек
Альбом : Butt Naked Free
Альбом/Испол
Яндекс.Метрика
Рейтинг@Mail.ru