VA - DJ HITS vol. 25 (1994) [FLAC|970 kbps]<Eurodance, Technopop, Disco>

 

Создавать темы 17-Дек-2014 11:57

-VA - DJ HITS vol. 25 (1994)- Год: 1994
Жанр: Eurodance, Technopop, Disco
Продолжительность: 01:14:42
Кодек: FLAC
Битрейт: 970 kbps
Трек лист:
1. REDNEX – Old Pop In An Oak
2. E-TYPE – Set The World On Fire
3. MR. PRESIDENT – Up’n Away
4. DEUCE – Call It Love
5. SAMIRA – When I Look Into Your Eyes
6. DIS-DANCE – Set Me In Motion
7. SILVIA COLEMAN – All Around The World
8. ALEX PARTY – Don’t Give Me Your Life
9. TALEESA – I Found Luv
10. SLAM – Back To Music
11. MAJOR T – I Can Only Give You My Heart
12. MAGIC AFFAIR – Fire
13. SEX CLUB – Big (big) Dick Man
14. X-PRESSION – This Is Our Night
15. SPARKS – When Do I Get To Sing “My Way”
16. PERFECTO ALLSTARZ – Reach Up (Pig Bag)
17. THE HUMAN LEAGUE – Tell Me When
18. STING feat. PATO BANTON – This Cowboy Song (remix)

EAC log

Exact Audio Copy V0.99 prebeta 5 from 4. May 2009
Отчёт EAC об извлечении, выполненном 14. августа 2009, 11:17
Various / DJ Hits 25
Дисковод: Optiarc DVD RW AD-7203S Adapter: 1 ID: 0
Режим чтения : Достоверность
Использование точного потока : Да
Отключение кэша аудио : Да
Использование указателей C2 : Нет
Коррекция смещения при чтении : 48
Способность читать области Lead-in и Lead-out : Нет
Заполнение пропущенных сэмплов тишиной : Да
Удаление блоков с тишиной в начале и конце : Нет
При вычислениях CRC использовались нулевые сэмплы : Да
Интерфейс : Встроенный Win32-интерфейс для Win NT/2000
Выходной формат : Внутренние WAV-операции
Формат сэмплов : 44.100 Гц; 16 бит; стерео
TOC извлечённого CD
Трек | Старт | Длительность | Начальный сектор | Конечный сектор
---------------------------------------------------------------------
1 | 0:00.00 | 3:35.15 | 0 | 16139
2 | 3:35.15 | 3:46.65 | 16140 | 33154
3 | 7:22.05 | 3:56.70 | 33155 | 50924
4 | 11:19.00 | 4:05.35 | 50925 | 69334
5 | 15:24.35 | 5:42.02 | 69335 | 94986
6 | 21:06.37 | 3:52.05 | 94987 | 112391
7 | 24:58.42 | 3:45.48 | 112392 | 129314
8 | 28:44.15 | 3:17.32 | 129315 | 144121
9 | 32:01.47 | 5:59.33 | 144122 | 171079
10 | 38:01.05 | 3:48.12 | 171080 | 188191
11 | 41:49.17 | 3:58.13 | 188192 | 206054
12 | 45:47.30 | 4:06.55 | 206055 | 224559
13 | 49:54.10 | 3:55.57 | 224560 | 242241
14 | 53:49.67 | 3:38.18 | 242242 | 258609
15 | 57:28.10 | 4:41.52 | 258610 | 279736
16 | 62:09.62 | 3:45.50 | 279737 | 296661
17 | 65:55.37 | 4:47.13 | 296662 | 318199
18 | 70:42.50 | 3:59.12 | 318200 | 336136
Характеристики диапазона извлечения и сообщения об ошибках
Выбранный диапазон
Имя файла E:\KPZ\Заказ\Various - DJ Hits 25.wav
Подозрительная позиция 1:08:32 - 1:08:48
Подозрительная позиция 1:08:54
Подозрительная позиция 1:08:56 - 1:09:12
Подозрительная позиция 1:09:19
Подозрительная позиция 1:09:21 - 1:09:22
Подозрительная позиция 1:13:37 - 1:13:46
Подозрительная позиция 1:13:56 - 1:14:05
Подозрительная позиция 1:14:08 - 1:14:17
Пиковый уровень 100.0 %
Качество диапазона 99.1 %
CRC теста 8F66E508
CRC копии 352E57EC
Копирование завершено
Были ошибки
Конец отчёта
P.S. Проверил звучание подозрительных позиций, явных дефектов звучания нет.

audiochecker

AUDIOCHECKER v2.0 beta (build 457) - by Dester - [url=mailto:[email protected]][email protected][/url]
~~~~~~~~~~~~~~~~~~~~~~~~~~~~~~~~~~
-=== НЕ РЕДАКТИРУЙТЕ ЭТОТ ФАЙЛ! ===-
Путь: ...\DJ Hits_25
1 -=- Various - DJ Hits 25.flac -=- CDDA (100%)
13945588
-
Яндекс.Метрика
Рейтинг@Mail.ru