[ Сегодня на трекере фрилич! Идет свободное скачивание без начисления Download ]

VA - Supermax (1990) [APE|Lossless]<Electronic>

 

Создавать темы 17-Дек-2014 11:57

-Various Artists - Supermax (1990)- Год: 1990
Жанр: Electronic
Продолжительность: 01:04:27
Кодек: APE
Битрейт: Lossless
Тип рипа: image+.cue
Издатель (лейбл): Max Music
Номер по каталогу: MDB 444
Наличие сканов в содержимом раздачи: да
Треклист:
01. Supermax Megamix (9:37)
02. Supermax Mix (12:39)
03. Technitronic Feat. Ya Kid K - Rockin` Over The Beat (3:50)
04. Off - La Casa Latina (4:40)
05. Cartouche - Feel The Groove (3:18)
06. The Power Jam Feat. Chill Rob G - The Power (3:59)
07. 2 In A Room - Wiggle It (4:06)
08. Technotronic - Move This (5:24)
09. Yankees - I Can`t Feel It (5:15)
10. Hypnoteck - Ready Or Not (3:43)
11. Neon - Cult Of Snap (5:11)
12. Jingles (2:46)

Отчёт ЕАС

Exact Audio Copy V0.99 prebeta 5 from 4. May 2009
Отчёт EAC об извлечении, выполненном 2. марта 2010, 19:08
Max Mix / Supermax
Дисковод: HL-DT-STDVDRAM GSA-4167B   Adapter: 0  ID: 1
Режим чтения                 : Достоверность
Использование точного потока : Да
Отключение кэша аудио        : Да
Использование указателей C2  : Нет
Коррекция смещения при чтении                     : 667
Способность читать области Lead-in и Lead-out     : Нет
Заполнение пропущенных сэмплов тишиной            : Да
Удаление блоков с тишиной в начале и конце        : Нет
При вычислениях CRC использовались нулевые сэмплы : Да
Интерфейс                                         : Встроенный Win32-интерфейс для Win NT/2000
Выходной формат : Внутренние WAV-операции
Формат сэмплов  : 44.100 Гц; 16 бит; стерео
TOC извлечённого CD
     Трек |   Старт  | Длительность | Начальный сектор | Конечный сектор
    ---------------------------------------------------------------------
       1  |  0:00.00 |    9:36.50   |           0      |      43249
       2  |  9:36.50 |   12:39.25   |       43250      |     100199
       3  | 22:16.00 |    3:49.50   |      100200      |     117424
       4  | 26:05.50 |    4:40.25   |      117425      |     138449
       5  | 30:46.00 |    3:18.25   |      138450      |     153324
       6  | 34:04.25 |    3:58.63   |      153325      |     171237
       7  | 38:03.13 |    4:06.00   |      171238      |     189687
       8  | 42:09.13 |    5:23.50   |      189688      |     213962
       9  | 47:32.63 |    5:15.25   |      213963      |     237612
      10  | 52:48.13 |    3:42.62   |      237613      |     254324
      11  | 56:31.00 |    5:10.38   |      254325      |     277612
      12  | 61:41.38 |    2:45.50   |      277613      |     290037
Характеристики диапазона извлечения и сообщения об ошибках
Выбранный диапазон
     Имя файла E:\Свои\VA-Supermax\Max Mix - Supermax.wav
     Пиковый уровень 99.3 %
     Качество диапазона 99.9 %
     CRC копии 09EDFCBF
     Копирование... OK
Ошибок не произошло
AccurateRip: сводка
Трек  1  точность не определена (достоверность 2)  [CC4A4113], AccurateRip вернул [E3E636FE]
Трек  2  точность не определена (достоверность 2)  [FE364140], AccurateRip вернул [7F1B8F70]
Трек  3  точность не определена (достоверность 2)  [56468D95], AccurateRip вернул [1268E37D]
Трек  4  точность не определена (достоверность 2)  [69CD1C1A], AccurateRip вернул [8C3FC7B6]
Трек  5  нет в базе данных
Трек  6  нет в базе данных
Трек  7  точность не определена (достоверность 2)  [BA04D7BA], AccurateRip вернул [B6712D26]
Трек  8  нет в базе данных
Трек  9  нет в базе данных
Трек 10  нет в базе данных
Трек 11  нет в базе данных
Трек 12  нет в базе данных
5 трек(и) не удалось проверить на точность
7 трек(и) не содержатся в базе AccurateRip
Ни один трек не прошёл проверки на точность
В вашей базе может быть иной вариант штамповки диска
Конец отчёта

Отчёт auCDtect Task manager

-----------------------
DON'T MODIFY THIS FILE
-----------------------
PERFORMER: auCDtect Task Manager, ver. 1.6.0 RC1 build 1.6.0.1
Copyright (c) 2008-2010 y-soft. All rights reserved
http://y-soft.org
ANALYZER: auCDtect: CD records authenticity detector, version 0.8.2
Copyright (c) 2004 Oleg Berngardt. All rights reserved.
Copyright (c) 2004 Alexander Djourik. All rights reserved.
FILE: Max Mix - Supermax.ape
  Size: 446843012 Hash: BE5938CCF9827DCF8907A5BEC524495D Accuracy: -m0
  Conclusion: CDDA 100%
  Signature: 09841054B2F4A06CBEAED97CD36951D3DFDBFC31

Содержание индексной карты (.CUE&#41;

REM DISCID B20F1B0C
REM COMMENT "ExactAudioCopy v0.99pb5"
PERFORMER "Max Mix"
TITLE "Supermax"
FILE "Max Mix - Supermax.ape" WAVE
  TRACK 01 AUDIO
    TITLE "Supermax Megamix"
    PERFORMER "Max Mix"
    INDEX 01 00:00:00
  TRACK 02 AUDIO
    TITLE "Supermax Mix"
    PERFORMER "Max Mix"
    INDEX 00 09:35:13
    INDEX 01 09:36:50
  TRACK 03 AUDIO
    TITLE "Technitronic Feat. Ya Kid K - Rockin` Over The Beat"
    PERFORMER "Max Mix"
    INDEX 00 22:14:38
    INDEX 01 22:16:00
  TRACK 04 AUDIO
    TITLE "Off - La Casa Latina"
    PERFORMER "Max Mix"
    INDEX 00 26:04:13
    INDEX 01 26:05:50
  TRACK 05 AUDIO
    TITLE "Cartouche - Feel The Groove"
    PERFORMER "Max Mix"
    INDEX 00 30:44:38
    INDEX 01 30:46:00
  TRACK 06 AUDIO
    TITLE "The Power Jam Feat. Chill Rob G - The Power"
    PERFORMER "Max Mix"
    INDEX 00 34:02:63
    INDEX 01 34:04:25
  TRACK 07 AUDIO
    TITLE "2 In A Room - Wiggle It"
    PERFORMER "Max Mix"
    INDEX 00 38:01:50
    INDEX 01 38:03:13
  TRACK 08 AUDIO
    TITLE "Technotronic - Move This"
    PERFORMER "Max Mix"
    INDEX 00 42:07:50
    INDEX 01 42:09:13
  TRACK 09 AUDIO
    TITLE "Yankees - I Can`t Feel It"
    PERFORMER "Max Mix"
    INDEX 00 47:31:25
    INDEX 01 47:32:63
  TRACK 10 AUDIO
    TITLE "Hypnoteck - Ready Or Not"
    PERFORMER "Max Mix"
    INDEX 00 52:46:50
    INDEX 01 52:48:13
  TRACK 11 AUDIO
    TITLE "Neon - Cult Of Snap"
    PERFORMER "Max Mix"
    INDEX 00 56:29:38
    INDEX 01 56:31:00
  TRACK 12 AUDIO
    TITLE "Jingles"
    PERFORMER "Max Mix"
    INDEX 00 61:40:00
    INDEX 01 61:41:38
    INDEX 02 61:54:00
    INDEX 03 62:05:25
    INDEX 04 62:16:25
    INDEX 05 62:24:50
    INDEX 06 62:35:13
    INDEX 07 62:46:00
    INDEX 08 62:56:50
    INDEX 09 63:07:13
    INDEX 10 63:14:00
-
Яндекс.Метрика
Рейтинг@Mail.ru